<?xml version="1.0" standalone="no"?>
<!DOCTYPE svg PUBLIC "-//W3C//DTD SVG 1.1//EN" "http://www.w3.org/Graphics/SVG/1.1/DTD/svg11.dtd" >
<svg xmlns="http://www.w3.org/2000/svg" xmlns:xlink="http://www.w3.org/1999/xlink" version="1.1">
<metadata>
Created by FontForge 20170731 at Fri Jan  4 23:25:49 2013
 By Aleksey,,,
Copyright (c) 2012 by Rui Abreu, Portugal. All rights reserved.
</metadata>
<defs>
<font id="AzoSans-Bold" horiz-adv-x="532" >
  <font-face 
    font-family="Azo Sans"
    font-weight="700"
    font-stretch="normal"
    units-per-em="1000"
    panose-1="2 0 0 0 0 0 0 0 0 0"
    ascent="772"
    descent="-228"
    x-height="492"
    cap-height="724"
    bbox="-101 -272 1306 1021"
    underline-thickness="50"
    underline-position="-220"
    unicode-range="U+000D-FB02"
  />
<missing-glyph horiz-adv-x="644" 
d="M150 604l131 131l213 -212l-101 -101l101 -100l-101 -101l101 -100l-132 -132l-212 213l100 100l-100 101l100 100z" />
    <glyph glyph-name="fi" unicode="fi" horiz-adv-x="654" 
d="M90 0v366h-70v126h70v73q0 115 52 164q47 46 139 46q46 0 84 -14v-123q-34 9 -66 9q-33 0 -45 -18.5t-12 -53.5v-83h114v-126h-114v-366h-152zM427 648q0 36 26 61.5t62 25.5t62 -25.5t26 -61.5t-26 -61.5t-62 -25.5t-62 25.5t-26 61.5zM439 0v492h152v-492h-152z" />
    <glyph glyph-name="fl" unicode="fl" horiz-adv-x="654" 
d="M90 0v366h-70v126h70v73q0 115 52 164q47 46 139 46q46 0 84 -14v-123q-34 9 -66 9q-33 0 -45 -18.5t-12 -53.5v-83h114v-126h-114v-366h-152zM439 0v764h152v-764h-152z" />
    <glyph glyph-name=".notdef" horiz-adv-x="644" 
d="M150 604l131 131l213 -212l-101 -101l101 -100l-101 -101l101 -100l-132 -132l-212 213l100 100l-100 101l100 100z" />
    <glyph glyph-name=".null" horiz-adv-x="0" 
 />
    <glyph glyph-name=".null" horiz-adv-x="0" 
 />
    <glyph glyph-name="nonmarkingreturn" horiz-adv-x="333" 
 />
    <glyph glyph-name="CR" unicode="&#xd;" horiz-adv-x="357" 
 />
    <glyph glyph-name="space" unicode=" " horiz-adv-x="237" 
 />
    <glyph glyph-name="exclam" unicode="!" horiz-adv-x="292" 
d="M58 76q0 36 26 61.5t62 25.5t62 -25.5t26 -61.5t-26 -61.5t-62 -25.5t-62 25.5t-26 61.5zM95 241l-37 483h176l-37 -483h-102z" />
    <glyph glyph-name="quotedbl" unicode="&#x22;" horiz-adv-x="374" 
d="M51 460l-21 282h128l-21 -282h-86zM237 460l-21 282h128l-21 -282h-86z" />
    <glyph glyph-name="numbersign" unicode="#" horiz-adv-x="634" 
d="M57 0l59 206h-107l27 93h107l36 126h-107l27 93h107l59 206h100l-59 -206h112l59 206h100l-59 -206h107l-27 -93h-107l-36 -126h107l-27 -93h-107l-59 -206h-100l59 206h-112l-59 -206h-100zM243 299h112l36 126h-112z" />
    <glyph glyph-name="dollar" unicode="$" horiz-adv-x="597" 
d="M243 -76v127q-91 12 -153 44v148q51 -33 109 -50t102 -17q82 0 82 58q0 13 -5.5 22.5t-13 15.5t-23 11.5t-28 9t-35.5 9t-39 10.5q-83 24 -126.5 64t-43.5 112q0 73 47.5 122t126.5 63v127h117v-126q84 -12 149 -44v-145q-50 31 -106.5 47.5t-99.5 16.5q-77 0 -77 -52
q0 -14 6 -24t21 -16.5t28.5 -10.5t40 -10.5t44.5 -11.5q85 -25 129.5 -66t44.5 -114q0 -78 -48.5 -128t-131.5 -64v-128h-117z" />
    <glyph glyph-name="percent" unicode="%" horiz-adv-x="931" 
d="M223 361q-82 0 -131 52.5t-49 134.5t49 134.5t131 52.5t131 -52.5t49 -134.5t-49 -134.5t-131 -52.5zM178 0l473 724h102l-473 -724h-102zM223 454q34 0 55.5 27t21.5 67t-21.5 67t-55.5 27t-55.5 -27t-21.5 -67t21.5 -67t55.5 -27zM528 176q0 82 49 134.5t131 52.5
t131 -52.5t49 -134.5t-49 -134.5t-131 -52.5t-131 52.5t-49 134.5zM631 176q0 -40 21.5 -67t55.5 -27t55.5 27t21.5 67t-21.5 67t-55.5 27t-55.5 -27t-21.5 -67z" />
    <glyph glyph-name="ampersand" unicode="&#x26;" horiz-adv-x="712" 
d="M539 434h154l-114 -268l162 -164l-1 -2h-187l-54 54q-72 -65 -199 -65q-128 0 -196.5 63.5t-68.5 149.5q0 120 134 187l-9 9q-72 74 -72 154q0 78 60.5 131t153.5 53t153 -53.5t60 -130.5q0 -100 -103 -167l-29 -19l91 -94zM304 118q64 0 95 38l-141 142l-13 -6
q-57 -27 -57 -84q0 -35 29 -62.5t87 -27.5zM238 546q0 -32 36 -69l20 -21l27 20q44 33 44 69q0 27 -18 44t-46 17q-29 0 -46 -17t-17 -43z" />
    <glyph glyph-name="quotesingle" unicode="'" horiz-adv-x="188" 
d="M51 460l-21 282h128l-21 -282h-86z" />
    <glyph glyph-name="parenleft" unicode="(" horiz-adv-x="373" 
d="M68 265q0 293 147 478h141q-68 -88 -109.5 -211t-41.5 -267t41.5 -267t109.5 -211h-141q-147 185 -147 478z" />
    <glyph glyph-name="parenright" unicode=")" horiz-adv-x="373" 
d="M17 -213q68 88 109.5 211t41.5 267t-41.5 267t-109.5 211h141q147 -185 147 -478t-147 -478h-141z" />
    <glyph glyph-name="asterisk" unicode="*" horiz-adv-x="450" 
d="M196 584l-18 142h93l-18 -142h-57zM282 521l-17 55l131 60l28 -88zM167 521l-142 27l28 88l131 -60zM301 348l-69 126l47 33l97 -104zM148 348l-75 55l97 104l47 -33z" />
    <glyph glyph-name="plus" unicode="+" horiz-adv-x="600" 
d="M241 116v191h-187v110h187v191h118v-191h187v-110h-187v-191h-118z" />
    <glyph glyph-name="comma" unicode="," horiz-adv-x="306" 
d="M42 -147l56 300h139l-90 -300h-105z" />
    <glyph glyph-name="hyphen" unicode="-" horiz-adv-x="339" 
d="M46 215v124h247v-124h-247z" />
    <glyph glyph-name="period" unicode="." horiz-adv-x="306" 
d="M61 79q0 37 27 63.5t65 26.5t65 -26.5t27 -63.5t-27 -63.5t-65 -26.5t-65 26.5t-27 63.5z" />
    <glyph glyph-name="slash" unicode="/" horiz-adv-x="466" 
d="M6 -38l338 800h116l-338 -800h-116z" />
    <glyph glyph-name="zero" unicode="0" horiz-adv-x="628" 
d="M314 -11q-128 0 -200 98q-66 91 -66 275t66 275q72 98 200 98t200 -98q66 -91 66 -275t-66 -275q-72 -98 -200 -98zM314 131q45 0 73 39q34 48 34 193q0 143 -34 191q-27 39 -73 39t-73 -39q-34 -49 -34 -193q0 -143 34 -191q28 -39 73 -39z" />
    <glyph glyph-name="one" unicode="1" horiz-adv-x="517" 
d="M212 0v533l-147 -53v144l306 111v-735h-159z" />
    <glyph glyph-name="two" unicode="2" horiz-adv-x="582" 
d="M17 2l221 292q60 80 84 123t24 81q0 45 -29.5 70t-78.5 25q-85 0 -169 -65v149q81 58 184 58q109 0 181.5 -61.5t72.5 -161.5q0 -58 -27.5 -117.5t-86.5 -138.5l-87 -115l1 -2h226v-139h-515z" />
    <glyph glyph-name="three" unicode="3" horiz-adv-x="570" 
d="M48 45v153q113 -69 201 -69q52 0 82.5 23t30.5 64q0 85 -125 85h-72v120h68q57 0 86 23.5t29 63.5q0 41 -29.5 64t-78.5 23q-72 0 -149 -42v142q66 40 161 40q110 0 182.5 -57.5t72.5 -143.5q0 -53 -29 -95.5t-78 -61.5v-2q59 -20 90 -66.5t31 -104.5q0 -95 -76 -155
t-188 -60q-127 0 -209 56z" />
    <glyph glyph-name="four" unicode="4" horiz-adv-x="655" 
d="M1 155l-1 2l369 567h141v-448h110v-121h-110v-155h-158v155h-351zM220 276h135v105q0 41 2 109l-2 1q-26 -43 -65 -104l-71 -109z" />
    <glyph glyph-name="five" unicode="5" horiz-adv-x="567" 
d="M43 33l11 142q92 -46 177 -46q61 0 98 24t37 65q0 30 -20.5 51t-54 31t-66.5 14.5t-68 4.5q-46 0 -85 -6l30 411h395l-10 -139h-237l-11 -144q42 -1 81.5 -9t77.5 -25t65.5 -42t44.5 -62t17 -83q0 -104 -80 -167.5t-205 -63.5q-118 0 -197 44z" />
    <glyph glyph-name="six" unicode="6" horiz-adv-x="626" 
d="M289 724h185l-191 -283l1 -1q32 15 76 15q92 0 156.5 -64t64.5 -161q0 -104 -77 -172.5t-193 -68.5t-192.5 68.5t-76.5 184.5q0 59 21 114t69 128zM205 230q0 -44 30.5 -76t78.5 -32q46 0 78 29.5t32 75.5q0 45 -31 75.5t-78 30.5q-46 0 -78 -29t-32 -74z" />
    <glyph glyph-name="seven" unicode="7" horiz-adv-x="568" 
d="M92 0l237 585h-288v139h510l1 -2l-293 -722h-167z" />
    <glyph glyph-name="eight" unicode="8" horiz-adv-x="644" 
d="M322 432q40 0 68 25t28 62t-27.5 61.5t-68.5 24.5t-68.5 -24.5t-27.5 -61.5t28 -62t68 -25zM322 120q47 0 78.5 28t31.5 71t-32 72t-78 29t-78 -29t-32 -72t31.5 -71t78.5 -28zM322 -11q-119 0 -196 61t-77 158q0 59 32 106t90 69v2q-47 18 -73 58t-26 90q0 87 72 144.5
t178 57.5t178 -57.5t72 -144.5q0 -50 -26 -90t-73 -58v-2q58 -22 90 -69t32 -106q0 -97 -77 -158t-196 -61z" />
    <glyph glyph-name="nine" unicode="9" horiz-adv-x="614" 
d="M334 0h-184l171 276l-1 2q-26 -9 -62 -9q-88 0 -155 62t-67 160q0 105 77 174t193 69q114 0 191 -67t77 -179q0 -99 -87 -241zM302 393q47 0 78 29.5t31 72.5t-31 75t-78 32q-45 0 -77.5 -29.5t-32.5 -75.5q0 -44 30.5 -74t79.5 -30z" />
    <glyph glyph-name="colon" unicode=":" horiz-adv-x="306" 
d="M153 331q-35 0 -60.5 25.5t-25.5 60.5t25.5 60.5t60.5 25.5t60.5 -25.5t25.5 -60.5t-25.5 -60.5t-60.5 -25.5zM67 75q0 35 25.5 60.5t60.5 25.5t60.5 -25.5t25.5 -60.5t-25.5 -60.5t-60.5 -25.5t-60.5 25.5t-25.5 60.5z" />
    <glyph glyph-name="semicolon" unicode=";" horiz-adv-x="306" 
d="M42 -147l56 300h139l-90 -300h-105zM153 331q-35 0 -60.5 25.5t-25.5 60.5t25.5 60.5t60.5 25.5t60.5 -25.5t25.5 -60.5t-25.5 -60.5t-60.5 -25.5z" />
    <glyph glyph-name="less" unicode="&#x3c;" horiz-adv-x="716" 
d="M82 322v80l552 212v-116l-351 -135v-2l351 -135v-116z" />
    <glyph glyph-name="equal" unicode="=" horiz-adv-x="600" 
d="M54 417v109h492v-109h-492zM54 198v109h492v-109h-492z" />
    <glyph glyph-name="greater" unicode="&#x3e;" horiz-adv-x="716" 
d="M82 110v116l351 135v2l-351 135v116l552 -212v-80z" />
    <glyph glyph-name="question" unicode="?" horiz-adv-x="514" 
d="M132 223l-24 178q203 0 203 102q0 38 -26.5 63t-71.5 25q-64 0 -138 -48l-19 142q72 50 170 50q105 0 175 -63t70 -157q0 -86 -59.5 -146.5t-138.5 -70.5v-75h-141zM128 76q0 36 26 61.5t62 25.5t62 -25.5t26 -61.5t-26 -61.5t-62 -25.5t-62 25.5t-26 61.5z" />
    <glyph glyph-name="at" unicode="@" horiz-adv-x="795" 
d="M23 246q0 160 107 266.5t268 106.5t267.5 -106t106.5 -259q0 -95 -43.5 -147.5t-119.5 -52.5q-81 0 -122 51h-2q-49 -52 -123 -52q-70 0 -115 49t-45 125q0 85 53.5 148.5t140.5 63.5q54 0 96 -29l83 13l-18 -199q-1 -11 -1 -24q0 -33 15.5 -55.5t47.5 -22.5
q36 0 59.5 31.5t23.5 96.5q0 124 -83 214t-220 90t-221.5 -90.5t-84.5 -218.5q0 -127 83.5 -217t219.5 -90q118 0 205 70l36 -57q-100 -78 -238 -78q-162 0 -269 106.5t-107 266.5zM379 136q50 0 79 40q-2 17 1 53l9 100q-31 27 -68 27q-45 0 -71 -39.5t-26 -88.5
q0 -41 20 -66.5t56 -25.5z" />
    <glyph glyph-name="A" unicode="A" horiz-adv-x="748" 
d="M3 0l294 724h154l294 -724h-170l-58 152h-292l-59 -152h-163zM303 354l-29 -77h195l-30 81q-39 106 -66 184h-2q-32 -91 -68 -188z" />
    <glyph glyph-name="B" unicode="B" horiz-adv-x="639" 
d="M66 0v724h211q302 0 302 -184q0 -104 -109 -144v-2q138 -40 138 -175q0 -104 -82 -161.5t-245 -57.5h-215zM225 424h84q111 0 111 82q0 44 -32.5 63t-113.5 19h-49v-164zM225 136h59q96 0 130.5 20t34.5 70q0 89 -129 89h-95v-179z" />
    <glyph glyph-name="C" unicode="C" horiz-adv-x="681" 
d="M35 361q0 159 110.5 266.5t283.5 107.5q109 0 201 -45v-161q-93 63 -200 63q-104 0 -170 -65t-66 -164t66.5 -165t175.5 -66q107 0 205 67v-162q-90 -48 -212 -48q-173 0 -283.5 106t-110.5 266z" />
    <glyph glyph-name="D" unicode="D" horiz-adv-x="743" 
d="M66 0v724h203q215 0 329 -93.5t114 -267.5q0 -172 -112 -267.5t-338 -95.5h-196zM225 139h44q284 0 284 224q0 119 -84 178q-62 44 -201 44h-43v-446z" />
    <glyph glyph-name="E" unicode="E" horiz-adv-x="561" 
d="M66 0v724h447v-139h-288v-142h248v-132h-248v-172h299v-139h-458z" />
    <glyph glyph-name="F" unicode="F" horiz-adv-x="566" 
d="M66 0v724h459v-139h-300v-156h258v-132h-258v-297h-159z" />
    <glyph glyph-name="G" unicode="G" horiz-adv-x="736" 
d="M35 359q0 161 112 268.5t284 107.5q123 0 222 -55v-160q-105 72 -219 72q-107 0 -173.5 -66.5t-66.5 -165.5q0 -98 65.5 -165t173.5 -67q51 0 89 16v109h-126v132h280v-336q-108 -60 -246 -60q-173 0 -284 104.5t-111 265.5z" />
    <glyph glyph-name="H" unicode="H" horiz-adv-x="763" 
d="M66 0v724h159v-280h313v280h159v-724h-159v305h-313v-305h-159z" />
    <glyph glyph-name="I" unicode="I" horiz-adv-x="291" 
d="M66 0v724h159v-724h-159z" />
    <glyph glyph-name="J" unicode="J" horiz-adv-x="404" 
d="M179 235v489h159v-486q0 -124 -48 -183q-54 -66 -170 -66q-60 0 -107 19v143q49 -19 92 -19q44 0 59 22t15 81z" />
    <glyph glyph-name="K" unicode="K" horiz-adv-x="674" 
d="M66 0v724h159v-320l2 -1l253 321h189l-274 -336l297 -388h-196l-269 362l-2 -1v-361h-159z" />
    <glyph glyph-name="L" unicode="L" horiz-adv-x="555" 
d="M66 0v724h159v-585h317v-139h-476z" />
    <glyph glyph-name="M" unicode="M" horiz-adv-x="866" 
d="M430 167l-105 149q-48 68 -106 155l-2 -1q2 -104 2 -180v-290h-153v724h153l215 -306l215 306h151v-724h-159v290q0 76 2 180l-2 1q-58 -87 -106 -155z" />
    <glyph glyph-name="N" unicode="N" horiz-adv-x="788" 
d="M572 0l-217 292q-57 77 -136 187l-2 -1q2 -138 2 -209v-269h-153v724h150l217 -292q57 -77 136 -187l2 1q-2 138 -2 209v269h153v-724h-150z" />
    <glyph glyph-name="O" unicode="O" horiz-adv-x="824" 
d="M412 133q93 0 156 66.5t63 162.5t-63 162.5t-156 66.5t-156 -66.5t-63 -162.5t63 -162.5t156 -66.5zM412 -11q-161 0 -269.5 107.5t-108.5 265.5t108.5 265.5t269.5 107.5t269.5 -107.5t108.5 -265.5t-108.5 -265.5t-269.5 -107.5z" />
    <glyph glyph-name="P" unicode="P" horiz-adv-x="639" 
d="M66 0v724h215q332 0 332 -231q0 -122 -85.5 -178t-252.5 -56h-50v-259h-159zM225 388h58q96 0 133.5 22.5t37.5 74.5q0 58 -40.5 79t-134.5 21h-54v-197z" />
    <glyph glyph-name="Q" unicode="Q" horiz-adv-x="824" 
d="M639 -168q-123 57 -234 157q-159 3 -265 109.5t-106 263.5q0 158 108.5 265.5t269.5 107.5t269.5 -107.5t108.5 -265.5q0 -112 -56.5 -201.5t-152.5 -134.5v-2q92 -60 203 -107zM412 133q93 0 156 66.5t63 162.5t-63 162.5t-156 66.5t-156 -66.5t-63 -162.5t63 -162.5
t156 -66.5z" />
    <glyph glyph-name="R" unicode="R" horiz-adv-x="653" 
d="M66 0v724h227q312 0 312 -218q0 -71 -38 -124t-109 -76l204 -306h-183l-183 286h-71v-286h-159zM225 405h80q70 0 105.5 21t35.5 69t-36.5 69t-123.5 21h-61v-180z" />
    <glyph glyph-name="S" unicode="S" horiz-adv-x="576" 
d="M61 40v160q55 -35 117.5 -53.5t109.5 -18.5q46 0 73.5 19t27.5 58q0 16 -6 29t-14 21t-26 16t-31 12t-40.5 12t-43.5 13q-89 29 -139.5 75.5t-50.5 132.5q0 101 69.5 160t184.5 59q125 0 221 -52v-157q-54 34 -115 52t-107 18q-93 0 -93 -68q0 -19 6.5 -32t24 -22.5
t30.5 -14.5t45 -14.5t48 -14.5q95 -31 146 -79t51 -136q0 -105 -72.5 -165.5t-190.5 -60.5q-123 0 -225 51z" />
    <glyph glyph-name="T" unicode="T" horiz-adv-x="657" 
d="M249 0v585h-234v139h627v-139h-234v-585h-159z" />
    <glyph glyph-name="U" unicode="U" horiz-adv-x="749" 
d="M113 107q-54 80 -54 240v377h159v-371q0 -119 34.5 -170t125.5 -51q86 0 122.5 51t36.5 169v372h153v-373q0 -167 -56 -246q-39 -55 -106.5 -85.5t-153.5 -30.5q-87 0 -155 31t-106 87z" />
    <glyph glyph-name="V" unicode="V" horiz-adv-x="707" 
d="M274 0l-277 724h171l116 -318q40 -108 70 -197h2q27 76 72 198l119 317h163l-276 -724h-160z" />
    <glyph glyph-name="W" unicode="W" horiz-adv-x="1053" 
d="M228 0l-221 724h167l92 -311q27 -90 52 -187h2q26 95 55 188l96 310h116l95 -310q33 -107 55 -188h2q25 96 54 190l93 308h160l-223 -724h-168l-78 255q-29 92 -51 173h-2q-22 -79 -52 -176l-78 -252h-166z" />
    <glyph glyph-name="X" unicode="X" horiz-adv-x="694" 
d="M-17 0l264 387l-227 337h186l65 -99q37 -56 80 -125h1q38 62 79 124l65 100h178l-227 -337l265 -387h-189l-103 155q-23 34 -76 118h-2q-26 -42 -75 -117l-103 -156h-181z" />
    <glyph glyph-name="Y" unicode="Y" horiz-adv-x="689" 
d="M266 0v327l-279 397h185l88 -131q35 -51 87 -133h2q49 77 87 134l87 130h179l-277 -396v-328h-159z" />
    <glyph glyph-name="Z" unicode="Z" horiz-adv-x="650" 
d="M8 2l343 581l-1 2h-310v139h572l1 -2l-343 -581l1 -2h333v-139h-595z" />
    <glyph glyph-name="bracketleft" unicode="[" horiz-adv-x="362" 
d="M215 -104h105v-109h-245v956h245v-109h-105v-738z" />
    <glyph glyph-name="backslash" unicode="\" horiz-adv-x="466" 
d="M344 -38l-338 800h116l338 -800h-116z" />
    <glyph glyph-name="bracketright" unicode="]" horiz-adv-x="362" 
d="M42 -104h105v738h-105v109h245v-956h-245v109z" />
    <glyph glyph-name="asciicircum" unicode="^" horiz-adv-x="559" 
d="M51 362l177 373h103l177 -373h-118l-110 220h-1l-110 -220h-118z" />
    <glyph glyph-name="underscore" unicode="_" horiz-adv-x="504" 
d="M0 -83h504v-66h-504v66z" />
    <glyph glyph-name="grave" unicode="`" 
d="M244 563l-116 164h136l84 -164h-104z" />
    <glyph glyph-name="a" unicode="a" horiz-adv-x="537" 
d="M203 -11q-67 0 -114 32q-58 40 -58 115q0 78 60 119q51 35 138 35q45 0 85 -9v19q0 35 -19 52q-23 21 -76 21q-72 0 -144 -39v131q76 38 172 38q107 0 164 -47q55 -45 55 -136v-167q0 -39 30 -39q13 0 25 6v-114q-28 -15 -73 -15q-68 0 -106 39h-2q-57 -41 -137 -41z
M245 101q36 0 69 20v72q-22 7 -54 7q-78 0 -78 -50q0 -23 18 -36t45 -13z" />
    <glyph glyph-name="b" unicode="b" horiz-adv-x="605" 
d="M63 -6v770h152v-294l2 -1q51 34 121 34q95 0 163.5 -68.5t68.5 -179.5q0 -116 -75.5 -191t-190.5 -75q-61 0 -122 25zM215 131q35 -19 78 -19q59 0 91.5 39.5t32.5 96.5q0 56 -31.5 92t-86.5 36q-43 0 -84 -24v-221z" />
    <glyph glyph-name="c" unicode="c" horiz-adv-x="512" 
d="M33 245q0 114 82 186t200 72q80 0 146 -33v-141q-72 46 -139 46q-60 0 -98.5 -36.5t-38.5 -92.5t39 -92t100 -36q79 0 144 49v-140q-69 -38 -161 -38q-119 0 -196.5 72.5t-77.5 183.5z" />
    <glyph glyph-name="d" unicode="d" horiz-adv-x="606" 
d="M36 236q0 116 74.5 191.5t185.5 75.5q50 0 93 -18l2 1v278h152v-764h-149v26l-2 1q-55 -38 -125 -38q-96 0 -163.5 68.5t-67.5 178.5zM189 243q0 -57 31 -93.5t86 -36.5q46 0 85 25v220q-38 19 -79 19q-58 0 -90.5 -38t-32.5 -96z" />
    <glyph glyph-name="e" unicode="e" horiz-adv-x="561" 
d="M522 206h-334q12 -49 50 -74t93 -25q87 0 167 54v-127q-72 -45 -187 -45q-123 0 -201 70.5t-78 184.5t76 186.5t182 72.5q98 0 166.5 -64t68.5 -181q0 -32 -3 -52zM288 387q-36 0 -64 -22t-37 -63h198q-7 39 -33.5 62t-63.5 23z" />
    <glyph glyph-name="f" unicode="f" horiz-adv-x="372" 
d="M90 0v366h-70v126h70v73q0 115 52 164q47 46 139 46q46 0 84 -14v-123q-34 9 -66 9q-33 0 -45 -18.5t-12 -53.5v-83h114v-126h-114v-366h-152z" />
    <glyph glyph-name="g" unicode="g" horiz-adv-x="599" 
d="M103 -195v144q81 -50 159 -50q56 0 88 28.5t32 82.5v27l-2 1q-46 -33 -115 -33q-93 0 -161 66.5t-68 174.5q0 110 71.5 183.5t184.5 73.5q65 0 123 -28l119 21v-486q0 -114 -71.5 -177.5t-191.5 -63.5q-94 0 -168 36zM190 252q0 -55 31 -89t84 -34q43 0 77 21v206
q-34 18 -75 18q-56 0 -86.5 -35.5t-30.5 -86.5z" />
    <glyph glyph-name="h" unicode="h" horiz-adv-x="600" 
d="M63 0v764h152v-316l2 -1q67 56 150 56q81 0 129 -50q43 -46 43 -146v-307h-152v282q0 49 -17 69q-18 21 -52 21q-50 0 -103 -41v-331h-152z" />
    <glyph glyph-name="i" unicode="i" horiz-adv-x="278" 
d="M51 648q0 36 26 61.5t62 25.5t62 -25.5t26 -61.5t-26 -61.5t-62 -25.5t-62 25.5t-26 61.5zM63 0v492h152v-492h-152z" />
    <glyph glyph-name="j" unicode="j" horiz-adv-x="281" 
d="M54 648q0 36 26 61.5t62 25.5t62 -25.5t26 -61.5t-26 -61.5t-62 -25.5t-62 25.5t-26 61.5zM66 -24v516h152v-506q0 -117 -45 -164q-52 -53 -149 -53q-39 0 -69 8v125q27 -5 50 -5q37 0 49 18.5t12 60.5z" />
    <glyph glyph-name="k" unicode="k" horiz-adv-x="581" 
d="M63 0v764h152v-480l2 -1l172 209h173l-188 -220l202 -272h-180l-179 251l-2 -1v-250h-152z" />
    <glyph glyph-name="l" unicode="l" horiz-adv-x="278" 
d="M63 0v764h152v-764h-152z" />
    <glyph glyph-name="m" unicode="m" horiz-adv-x="912" 
d="M699 0v284q0 48 -18 67q-20 21 -52 21q-51 0 -97 -41q1 -7 1 -22v-309h-152v284q0 48 -18 67q-20 21 -52 21q-48 0 -96 -40v-332h-152v492h150v-44l2 -1q67 56 148 56q43 0 82.5 -17.5t60.5 -52.5q79 70 173 70q80 0 127 -49q45 -46 45 -145v-309h-152z" />
    <glyph glyph-name="n" unicode="n" horiz-adv-x="600" 
d="M63 0v492h150v-45l2 -1q70 57 152 57q81 0 129 -50q43 -46 43 -146v-307h-152v282q0 49 -17 69q-18 21 -52 21q-50 0 -103 -41v-331h-152z" />
    <glyph glyph-name="o" unicode="o" horiz-adv-x="612" 
d="M184 246q0 -53 35 -89.5t87 -36.5t87 36.5t35 89.5t-35 89.5t-87 36.5t-87 -36.5t-35 -89.5zM32 246q0 109 78.5 183t195.5 74t195.5 -74t78.5 -183t-78.5 -183t-195.5 -74t-195.5 74t-78.5 183z" />
    <glyph glyph-name="p" unicode="p" horiz-adv-x="604" 
d="M215 7v-227h-152v712h149v-25l2 -1q54 37 122 37q97 0 165 -70.5t68 -182.5q0 -116 -73.5 -188.5t-183.5 -72.5q-55 0 -95 19zM215 131q36 -19 78 -19q58 0 90.5 36.5t32.5 93.5t-32 95.5t-87 38.5q-45 0 -82 -27v-218z" />
    <glyph glyph-name="q" unicode="q" horiz-adv-x="606" 
d="M36 239q0 115 74.5 189.5t188.5 74.5q69 0 131 -31l113 20v-712h-152v238l-2 1q-53 -30 -116 -30q-100 0 -168.5 69.5t-68.5 180.5zM189 243q0 -56 31.5 -93.5t87.5 -37.5q47 0 83 25v220q-42 19 -80 19q-57 0 -89.5 -38t-32.5 -95z" />
    <glyph glyph-name="r" unicode="r" horiz-adv-x="401" 
d="M63 0v492h149v-66l2 -1q52 73 143 73q17 0 32 -4v-143q-20 5 -41 5q-83 0 -133 -58v-298h-152z" />
    <glyph glyph-name="s" unicode="s" horiz-adv-x="494" 
d="M51 29v133q96 -56 192 -56q67 0 67 38q0 11 -5.5 18t-19 11.5t-26.5 7.5t-36.5 7t-41.5 9q-74 18 -111 51.5t-37 91.5q1 76 61 119.5t154 43.5q107 0 188 -39v-131q-93 53 -185 53q-64 0 -64 -35q0 -10 5.5 -17t18.5 -11.5t25.5 -7t36 -7t40.5 -8.5q76 -19 113.5 -51.5
t37.5 -92.5q-1 -79 -62.5 -123t-158.5 -44q-109 0 -192 40z" />
    <glyph glyph-name="t" unicode="t" horiz-adv-x="410" 
d="M143 38q-43 46 -43 147v181h-80v126h80v128l152 26v-154h130v-126h-130v-165q0 -84 57 -84q33 0 73 20v-121q-41 -27 -111 -27q-82 0 -128 49z" />
    <glyph glyph-name="u" unicode="u" horiz-adv-x="605" 
d="M110 38q-47 48 -47 151v303h152v-280q0 -51 19 -71q19 -22 54 -22q54 0 100 44v329h152v-492h-150v46l-2 1q-67 -58 -150 -58q-81 0 -128 49z" />
    <glyph glyph-name="v" unicode="v" horiz-adv-x="557" 
d="M206 0l-200 492h160l58 -158q28 -77 55 -156h2q29 80 59 157l61 157h150l-200 -492h-145z" />
    <glyph glyph-name="w" unicode="w" horiz-adv-x="828" 
d="M180 0l-168 492h158l50 -155q24 -75 43 -142h2q20 65 46 142l53 155h113l52 -155q25 -76 45 -142h2q16 56 43 142l50 155h147l-168 -492h-142l-44 131q-25 74 -44 141h-2q-18 -62 -45 -140l-45 -132h-146z" />
    <glyph glyph-name="x" unicode="x" horiz-adv-x="543" 
d="M-8 0l190 263l-168 229h169l37 -55q29 -43 54 -83h2q24 38 54 82l38 56h159l-167 -228l191 -264h-174l-57 85q-33 50 -53 82h-2q-20 -32 -53 -82l-57 -85h-163z" />
    <glyph glyph-name="y" unicode="y" horiz-adv-x="558" 
d="M232 -220h-155l129 274l-200 438h160l51 -122q33 -80 63 -156h2q31 75 67 159l52 119h151z" />
    <glyph glyph-name="z" unicode="z" horiz-adv-x="495" 
d="M467 0h-452l-1 2l221 362l-1 2h-198v126h436l1 -2l-221 -362l1 -2h214v-126z" />
    <glyph glyph-name="braceleft" unicode="{" horiz-adv-x="374" 
d="M114 -61v200q0 39 -14 55t-52 16h-29v110h29q38 0 52 16t14 55v200q0 75 43.5 119t129.5 44q38 0 68 -6v-107q-15 4 -38 4q-33 0 -48 -16.5t-15 -55.5v-176q0 -57 -15.5 -88t-53.5 -43v-2q38 -12 53.5 -43t15.5 -88v-176q0 -39 15 -55.5t48 -16.5q23 0 38 4v-107
q-30 -6 -68 -6q-86 0 -129.5 44t-43.5 119z" />
    <glyph glyph-name="bar" unicode="|" horiz-adv-x="321" 
d="M102 -220v1020h117v-1020h-117z" />
    <glyph glyph-name="braceright" unicode="}" horiz-adv-x="374" 
d="M120 -43v176q0 57 15.5 88t53.5 43v2q-38 12 -53.5 43t-15.5 88v176q0 39 -15 55.5t-48 16.5q-23 0 -38 -4v107q30 6 68 6q86 0 129.5 -44t43.5 -119v-200q0 -39 14 -55t52 -16h29v-110h-29q-38 0 -52 -16t-14 -55v-200q0 -75 -43.5 -119t-129.5 -44q-38 0 -68 6v107
q15 -4 38 -4q33 0 48 16.5t15 55.5z" />
    <glyph glyph-name="asciitilde" unicode="~" horiz-adv-x="556" 
d="M382 272q-44 0 -115 33q-64 31 -95 31q-55 0 -94 -59l-2 1v137q39 37 98 37q44 0 115 -33q66 -31 95 -31q57 0 94 59l2 -1v-137q-37 -37 -98 -37z" />
    <glyph glyph-name="uni00A0" unicode="&#xa0;" horiz-adv-x="237" 
 />
    <glyph glyph-name="exclamdown" unicode="&#xa1;" horiz-adv-x="292" 
d="M197 251l37 -483h-176l37 483h102zM234 416q0 -36 -26 -61.5t-62 -25.5t-62 25.5t-26 61.5t26 61.5t62 25.5t62 -25.5t26 -61.5z" />
    <glyph glyph-name="cent" unicode="&#xa2;" horiz-adv-x="516" 
d="M223 -18v132q-88 23 -140.5 89.5t-52.5 155.5q0 91 54 157.5t139 89.5v136h117v-125q70 -6 118 -32v-141q-73 46 -139 46q-61 0 -99 -36.5t-38 -92.5t39 -92t100 -36q79 0 144 49v-140q-48 -29 -125 -36v-124h-117z" />
    <glyph glyph-name="sterling" unicode="&#xa3;" horiz-adv-x="590" 
d="M55 295v116h43q-18 58 -18 102q0 99 72 160.5t184 61.5q106 0 182 -51v-154q-86 62 -170 62q-49 0 -79 -24.5t-30 -67.5q0 -30 18 -89h165v-116h-136q3 -18 3 -34q0 -76 -56 -120v-2h311v-139h-489v116q84 41 84 134q0 20 -5 45h-79z" />
    <glyph glyph-name="currency" unicode="&#xa4;" horiz-adv-x="598" 
d="M198 350q0 -46 28 -76.5t73 -30.5t73 30.5t28 76.5t-28 76.5t-73 30.5t-73 -30.5t-28 -76.5zM85 350q0 53 22 99l-78 79l91 91l78 -79q44 23 101 23t101 -23l78 79l91 -91l-78 -79q22 -46 22 -99t-22 -99l78 -79l-91 -91l-78 79q-44 -23 -101 -23t-101 23l-78 -79l-91 91
l78 79q-22 46 -22 99z" />
    <glyph glyph-name="yen" unicode="&#xa5;" horiz-adv-x="694" 
d="M93 390v102h81l-163 232h184l67 -99q35 -51 87 -133h2q49 77 87 134l66 98h178l-163 -232h83v-102h-154l-21 -30v-52h175v-103h-175v-205h-159v205h-175v103h175v51l-22 31h-153z" />
    <glyph glyph-name="brokenbar" unicode="&#xa6;" horiz-adv-x="321" 
d="M102 408v392h117v-392h-117zM102 172h117v-392h-117v392z" />
    <glyph glyph-name="section" unicode="&#xa7;" horiz-adv-x="583" 
d="M114 11q84 -43 149 -43q34 0 55.5 14.5t21.5 40.5q0 14 -6 25.5t-22.5 22t-29 17t-41.5 19t-44 19.5q-69 32 -108 71.5t-39 102.5q0 98 93 140v2q-46 44 -46 111q0 81 62.5 130.5t154.5 49.5q82 0 145 -33v-129q-73 39 -133 39q-34 0 -55.5 -14.5t-21.5 -40.5
q0 -10 3 -18.5t11 -16t15.5 -13.5t22 -13t24.5 -11.5t29.5 -12.5t30.5 -13q74 -33 114 -72.5t40 -105.5q0 -99 -91 -143v-2q44 -44 44 -108q0 -83 -64.5 -132t-163.5 -49q-76 0 -150 34v132zM392 271q0 10 -3 18.5t-11 16.5t-14.5 13.5t-21 12.5t-24 11t-29 12.5t-29.5 12.5
q-63 -18 -63 -60q0 -11 3.5 -20t11.5 -17t16 -14t22.5 -13t24 -11.5t28 -12.5t28.5 -12q61 19 61 63z" />
    <glyph glyph-name="dieresis" unicode="&#xa8;" 
d="M154 571q-32 0 -54.5 22.5t-22.5 54.5t22.5 54.5t54.5 22.5t54.5 -22.5t22.5 -54.5t-22.5 -54.5t-54.5 -22.5zM378 571q-32 0 -54.5 22.5t-22.5 54.5t22.5 54.5t54.5 22.5t54.5 -22.5t22.5 -54.5t-22.5 -54.5t-54.5 -22.5z" />
    <glyph glyph-name="copyright" unicode="&#xa9;" horiz-adv-x="798" 
d="M24 362q0 159 107.5 266t267.5 107t267.5 -107t107.5 -266t-107.5 -266t-267.5 -107t-267.5 107t-107.5 266zM88 362q0 -134 87 -223.5t224 -89.5t224 89.5t87 223.5t-87 223.5t-224 89.5t-224 -89.5t-87 -223.5zM199 366q0 89 61.5 147t153.5 58q71 0 121 -31v-97
q-57 38 -113 38q-52 0 -85.5 -32t-33.5 -82q0 -49 33 -81t87 -32q64 0 117 39v-97q-51 -33 -129 -33q-92 0 -152 58t-60 145z" />
    <glyph glyph-name="ordfeminine" unicode="&#xaa;" horiz-adv-x="377" 
d="M156 401q-45 0 -76 22q-39 28 -39 75t40 76q34 24 89 24q28 0 53 -7v11q0 43 -59 43q-47 0 -93 -24v91q48 23 113 23q68 0 108 -31q37 -30 37 -89v-103q0 -25 18 -25q7 0 17 5v-79q-19 -11 -52 -11q-45 0 -70 25h-2q-36 -26 -84 -26zM182 477q24 0 41 11v43q-13 4 -33 4
q-46 0 -46 -30q0 -28 38 -28z" />
    <glyph glyph-name="guillemotleft" unicode="&#xab;" horiz-adv-x="577" 
d="M185 27l-163 219l163 219h122l-162 -219l162 -219h-122zM416 27l-163 219l163 219h122l-162 -219l162 -219h-122z" />
    <glyph glyph-name="logicalnot" unicode="&#xac;" horiz-adv-x="600" 
d="M54 307v110h492v-301h-117v191h-375z" />
    <glyph glyph-name="uni00AD" unicode="&#xad;" horiz-adv-x="339" 
d="M46 215v124h247v-124h-247z" />
    <glyph glyph-name="registered" unicode="&#xae;" horiz-adv-x="441" 
d="M221 363q-81 0 -134.5 53t-53.5 133t53.5 133t134.5 53t134.5 -53t53.5 -133t-53.5 -133t-134.5 -53zM221 399q67 0 108.5 42.5t41.5 107.5t-41.5 107.5t-108.5 42.5t-108.5 -42.5t-41.5 -107.5t41.5 -107.5t108.5 -42.5zM256 448l-39 71h-20v-71h-50v202h79
q33 0 55.5 -17.5t22.5 -48.5q0 -40 -39 -57l48 -79h-57zM197 555h24q32 0 32 26q0 25 -32 25h-24v-51z" />
    <glyph glyph-name="macron" unicode="&#xaf;" 
d="M113 595v100h306v-100h-306z" />
    <glyph glyph-name="degree" unicode="&#xb0;" horiz-adv-x="353" 
d="M176 441q-65 0 -108 42.5t-43 104.5t43 104.5t108 42.5t108 -42.5t43 -104.5t-43 -104.5t-108 -42.5zM176 503q36 0 61 25t25 60t-25 60t-61 25t-61 -25t-25 -60t25 -60t61 -25z" />
    <glyph glyph-name="plusminus" unicode="&#xb1;" horiz-adv-x="600" 
d="M241 238v161h-170v110h170v161h118v-161h170v-110h-170v-161h-118zM71 64v109h458v-109h-458z" />
    <glyph glyph-name="two.superior" unicode="&#xb2;" horiz-adv-x="375" 
d="M9 422l-1 2l139 175q62 78 62 114q0 45 -55 45q-53 0 -112 -39v106q62 38 127 38q75 0 117 -38t42 -100q0 -64 -67 -148l-41 -50l1 -2h120v-103h-332z" />
    <glyph glyph-name="three.superior" unicode="&#xb3;" horiz-adv-x="367" 
d="M36 452v108q65 -43 122 -43q62 0 62 41q0 38 -70 38h-46v84h43q65 0 65 40q0 19 -16.5 30t-44.5 11q-45 0 -99 -26v101q50 27 112 27q71 0 118.5 -35t47.5 -87q0 -65 -63 -91v-2q72 -28 72 -101q0 -59 -51 -95.5t-123 -36.5q-71 0 -129 37z" />
    <glyph glyph-name="acute" unicode="&#xb4;" 
d="M404 727l-116 -164h-104l84 164h136z" />
    <glyph glyph-name="mu" unicode="&#xb5;" horiz-adv-x="604" 
d="M227 -220h-162v712h152v-280q0 -51 19 -71q19 -22 54 -22q54 0 100 44v329h152v-492h-150v46l-2 1q-27 -26 -64 -42t-71 -16q-26 0 -43 7l-2 -1z" />
    <glyph glyph-name="paragraph" unicode="&#xb6;" horiz-adv-x="609" 
d="M225 -220v582q-76 0 -129.5 53t-53.5 128t53.5 128t129.5 53h306v-944h-116v843h-74v-843h-116z" />
    <glyph glyph-name="periodcentered" unicode="&#xb7;" horiz-adv-x="306" 
d="M61 302q0 37 27 63.5t65 26.5t65 -26.5t27 -63.5t-27 -63.5t-65 -26.5t-65 26.5t-27 63.5z" />
    <glyph glyph-name="cedilla" unicode="&#xb8;" 
d="M214 -87l41 128l56 -13l-21 -65q88 -18 88 -91q0 -42 -31 -67.5t-82 -25.5q-45 0 -87 19l21 66q36 -19 65 -19q39 0 39 26q0 36 -89 42z" />
    <glyph glyph-name="one.superior" unicode="&#xb9;" horiz-adv-x="331" 
d="M129 422v299l-91 -31v103l206 70v-441h-115z" />
    <glyph glyph-name="ordmasculine" unicode="&#xba;" horiz-adv-x="403" 
d="M201 401q-78 0 -128.5 47.5t-50.5 119.5t51 119.5t129 47.5t128.5 -47.5t50.5 -119.5t-51 -119.5t-129 -47.5zM202 494q31 0 50 20.5t19 52.5t-19.5 53.5t-50.5 21.5t-50 -20.5t-19 -52.5q0 -33 19.5 -54t50.5 -21z" />
    <glyph glyph-name="guillemotright" unicode="&#xbb;" horiz-adv-x="577" 
d="M39 27l162 219l-162 219h122l163 -219l-163 -219h-122zM270 27l162 219l-162 219h122l163 -219l-163 -219h-122z" />
    <glyph glyph-name="onequarter" unicode="&#xbc;" horiz-adv-x="988" 
d="M315 -13h-128l473 737h128zM760 0v86h-221l-1 2l230 346h107v-262h58v-86h-58v-86h-115zM691 172h69v51q0 27 2 61l-2 1q-19 -34 -38 -63l-32 -48zM147 294v299l-91 -31v103l206 70v-441h-115z" />
    <glyph glyph-name="onehalf" unicode="&#xbd;" horiz-adv-x="1006" 
d="M608 0l-1 2l139 175q62 78 62 114q0 45 -55 45q-53 0 -112 -39v106q62 38 127 38q75 0 117 -38t42 -100q0 -64 -67 -148l-41 -50l1 -2h120v-103h-332zM315 -13h-128l473 737h128zM147 294v299l-91 -31v103l206 70v-441h-115z" />
    <glyph glyph-name="threequarters" unicode="&#xbe;" horiz-adv-x="1018" 
d="M69 324v108q65 -43 122 -43q62 0 62 41q0 38 -70 38h-46v84h43q65 0 65 40q0 19 -16.5 30t-44.5 11q-45 0 -99 -26v101q50 27 112 27q71 0 118.5 -35t47.5 -87q0 -65 -63 -91v-2q72 -29 72 -101q0 -59 -51 -95.5t-123 -36.5q-71 0 -129 37zM345 -13h-128l473 737h128z
M790 0v86h-221l-1 2l230 346h107v-262h58v-86h-58v-86h-115zM721 172h69v51q0 27 2 61l-2 1q-19 -34 -38 -63l-32 -48z" />
    <glyph glyph-name="questiondown" unicode="&#xbf;" horiz-adv-x="514" 
d="M387 269l24 -178q-203 0 -203 -102q0 -38 26.5 -63t71.5 -25q64 0 138 48l19 -142q-72 -50 -170 -50q-105 0 -175 63t-70 157q0 86 59.5 146.5t138.5 70.5v75h141zM391 416q0 -36 -26 -61.5t-62 -25.5t-62 25.5t-26 61.5t26 61.5t62 25.5t62 -25.5t26 -61.5z" />
    <glyph glyph-name="Agrave" unicode="&#xc0;" horiz-adv-x="748" 
d="M3 0l294 724h154l294 -724h-170l-58 152h-292l-59 -152h-163zM303 354l-29 -77h195l-30 81q-39 106 -66 184h-2q-32 -91 -68 -188zM352 795l-116 164h136l84 -164h-104z" />
    <glyph glyph-name="Aacute" unicode="&#xc1;" horiz-adv-x="748" 
d="M3 0l294 724h154l294 -724h-170l-58 152h-292l-59 -152h-163zM303 354l-29 -77h195l-30 81q-39 106 -66 184h-2q-32 -91 -68 -188zM512 959l-116 -164h-104l84 164h136z" />
    <glyph glyph-name="Acircumflex" unicode="&#xc2;" horiz-adv-x="748" 
d="M3 0l294 724h154l294 -724h-170l-58 152h-292l-59 -152h-163zM303 354l-29 -77h195l-30 81q-39 106 -66 184h-2q-32 -91 -68 -188zM197 795l118 164h118l118 -164h-102l-75 91l-75 -91h-102z" />
    <glyph glyph-name="Atilde" unicode="&#xc3;" horiz-adv-x="748" 
d="M3 0l294 724h154l294 -724h-170l-58 152h-292l-59 -152h-163zM303 354l-29 -77h195l-30 81q-39 106 -66 184h-2q-32 -91 -68 -188zM366 828q-48 23 -69 23q-45 0 -87 -50l-2 1v113q37 37 89 37q34 0 85 -24q48 -23 69 -23q45 0 87 50l2 -1v-113q-37 -37 -89 -37
q-34 0 -85 24z" />
    <glyph glyph-name="Adieresis" unicode="&#xc4;" horiz-adv-x="748" 
d="M3 0l294 724h154l294 -724h-170l-58 152h-292l-59 -152h-163zM303 354l-29 -77h195l-30 81q-39 106 -66 184h-2q-32 -91 -68 -188zM262 803q-32 0 -54.5 22.5t-22.5 54.5t22.5 54.5t54.5 22.5t54.5 -22.5t22.5 -54.5t-22.5 -54.5t-54.5 -22.5zM486 803q-32 0 -54.5 22.5
t-22.5 54.5t22.5 54.5t54.5 22.5t54.5 -22.5t22.5 -54.5t-22.5 -54.5t-54.5 -22.5z" />
    <glyph glyph-name="Aring" unicode="&#xc5;" horiz-adv-x="748" 
d="M3 0l294 724h154l294 -724h-170l-58 152h-292l-59 -152h-163zM303 354l-29 -77h195l-30 81q-39 106 -66 184h-2q-32 -91 -68 -188zM374 773q-56 0 -93 35.5t-37 88.5t37 88.5t93 35.5t93 -35.5t37 -88.5t-37 -88.5t-93 -35.5zM374 837q26 0 42 17t16 43t-16 43t-42 17
t-42 -17t-16 -43t16 -43t42 -17z" />
    <glyph glyph-name="AE" unicode="&#xc6;" horiz-adv-x="958" 
d="M-8 0l398 724h520v-139h-278v-142h238v-132h-238v-172h289v-139h-448v152h-235l-82 -152h-164zM369 395l-64 -118h168v116q0 78 2 198h-2z" />
    <glyph glyph-name="Ccedilla" unicode="&#xc7;" horiz-adv-x="681" 
d="M347 -87l25 79q-151 18 -244 120.5t-93 248.5q0 159 110.5 266.5t283.5 107.5q109 0 201 -45v-161q-93 63 -200 63q-104 0 -170 -65t-66 -164t66.5 -165t175.5 -66q107 0 205 67v-162q-87 -46 -210 -48l-8 -26q88 -18 88 -91q0 -42 -31 -67.5t-82 -25.5q-45 0 -87 19
l21 66q36 -19 65 -19q39 0 39 26q0 36 -89 42z" />
    <glyph glyph-name="Egrave" unicode="&#xc8;" horiz-adv-x="561" 
d="M66 0v724h447v-139h-288v-142h248v-132h-248v-172h299v-139h-458zM272 795l-116 164h136l84 -164h-104z" />
    <glyph glyph-name="Eacute" unicode="&#xc9;" horiz-adv-x="561" 
d="M66 0v724h447v-139h-288v-142h248v-132h-248v-172h299v-139h-458zM432 959l-116 -164h-104l84 164h136z" />
    <glyph glyph-name="Ecircumflex" unicode="&#xca;" horiz-adv-x="561" 
d="M66 0v724h447v-139h-288v-142h248v-132h-248v-172h299v-139h-458zM117 795l118 164h118l118 -164h-102l-75 91l-75 -91h-102z" />
    <glyph glyph-name="Edieresis" unicode="&#xcb;" horiz-adv-x="561" 
d="M66 0v724h447v-139h-288v-142h248v-132h-248v-172h299v-139h-458zM182 803q-32 0 -54.5 22.5t-22.5 54.5t22.5 54.5t54.5 22.5t54.5 -22.5t22.5 -54.5t-22.5 -54.5t-54.5 -22.5zM406 803q-32 0 -54.5 22.5t-22.5 54.5t22.5 54.5t54.5 22.5t54.5 -22.5t22.5 -54.5
t-22.5 -54.5t-54.5 -22.5z" />
    <glyph glyph-name="Igrave" unicode="&#xcc;" horiz-adv-x="291" 
d="M66 0v724h159v-724h-159zM123 795l-116 164h136l84 -164h-104z" />
    <glyph glyph-name="Iacute" unicode="&#xcd;" horiz-adv-x="291" 
d="M66 0v724h159v-724h-159zM283 959l-116 -164h-104l84 164h136z" />
    <glyph glyph-name="Icircumflex" unicode="&#xce;" horiz-adv-x="291" 
d="M66 0v724h159v-724h-159zM-32 795l118 164h118l118 -164h-102l-75 91l-75 -91h-102z" />
    <glyph glyph-name="Idieresis" unicode="&#xcf;" horiz-adv-x="291" 
d="M66 0v724h159v-724h-159zM33 803q-31 0 -54 22.5t-23 54.5t23 54.5t54 22.5t54 -22.5t23 -54.5t-23 -54.5t-54 -22.5zM257 803q-31 0 -54 22.5t-23 54.5t23 54.5t54 22.5t54 -22.5t23 -54.5t-23 -54.5t-54 -22.5z" />
    <glyph glyph-name="Eth" unicode="&#xd0;" horiz-adv-x="758" 
d="M2 313v111h79v300h203q199 0 304 -73q67 -47 103 -121t36 -167q0 -176 -120 -274q-110 -89 -330 -89h-196v313h-79zM240 139h44q148 0 214 57q70 60 70 167q0 119 -84 178q-62 44 -201 44h-43v-161h131v-111h-131v-174z" />
    <glyph glyph-name="Ntilde" unicode="&#xd1;" horiz-adv-x="788" 
d="M572 0l-217 292q-57 77 -136 187l-2 -1q2 -138 2 -209v-269h-153v724h150l217 -292q57 -77 136 -187l2 1q-2 138 -2 209v269h153v-724h-150zM386 828q-48 23 -69 23q-45 0 -87 -50l-2 1v113q37 37 89 37q34 0 85 -24q48 -23 69 -23q45 0 87 50l2 -1v-113q-37 -37 -89 -37
q-34 0 -85 24z" />
    <glyph glyph-name="Ograve" unicode="&#xd2;" horiz-adv-x="824" 
d="M412 133q93 0 156 66.5t63 162.5t-63 162.5t-156 66.5t-156 -66.5t-63 -162.5t63 -162.5t156 -66.5zM412 -11q-161 0 -269.5 107.5t-108.5 265.5t108.5 265.5t269.5 107.5t269.5 -107.5t108.5 -265.5t-108.5 -265.5t-269.5 -107.5zM390 795l-116 164h136l84 -164h-104z
" />
    <glyph glyph-name="Oacute" unicode="&#xd3;" horiz-adv-x="824" 
d="M412 133q93 0 156 66.5t63 162.5t-63 162.5t-156 66.5t-156 -66.5t-63 -162.5t63 -162.5t156 -66.5zM412 -11q-161 0 -269.5 107.5t-108.5 265.5t108.5 265.5t269.5 107.5t269.5 -107.5t108.5 -265.5t-108.5 -265.5t-269.5 -107.5zM550 959l-116 -164h-104l84 164h136z
" />
    <glyph glyph-name="Ocircumflex" unicode="&#xd4;" horiz-adv-x="824" 
d="M412 133q93 0 156 66.5t63 162.5t-63 162.5t-156 66.5t-156 -66.5t-63 -162.5t63 -162.5t156 -66.5zM412 -11q-161 0 -269.5 107.5t-108.5 265.5t108.5 265.5t269.5 107.5t269.5 -107.5t108.5 -265.5t-108.5 -265.5t-269.5 -107.5zM235 795l118 164h118l118 -164h-102
l-75 91l-75 -91h-102z" />
    <glyph glyph-name="Otilde" unicode="&#xd5;" horiz-adv-x="824" 
d="M412 133q93 0 156 66.5t63 162.5t-63 162.5t-156 66.5t-156 -66.5t-63 -162.5t63 -162.5t156 -66.5zM412 -11q-161 0 -269.5 107.5t-108.5 265.5t108.5 265.5t269.5 107.5t269.5 -107.5t108.5 -265.5t-108.5 -265.5t-269.5 -107.5zM404 828q-48 23 -69 23q-45 0 -87 -50
l-2 1v113q37 37 89 37q34 0 85 -24q48 -23 69 -23q45 0 87 50l2 -1v-113q-37 -37 -89 -37q-34 0 -85 24z" />
    <glyph glyph-name="Odieresis" unicode="&#xd6;" horiz-adv-x="824" 
d="M412 133q93 0 156 66.5t63 162.5t-63 162.5t-156 66.5t-156 -66.5t-63 -162.5t63 -162.5t156 -66.5zM412 -11q-161 0 -269.5 107.5t-108.5 265.5t108.5 265.5t269.5 107.5t269.5 -107.5t108.5 -265.5t-108.5 -265.5t-269.5 -107.5zM300 803q-32 0 -54.5 22.5t-22.5 54.5
t22.5 54.5t54.5 22.5t54.5 -22.5t22.5 -54.5t-22.5 -54.5t-54.5 -22.5zM524 803q-32 0 -54.5 22.5t-22.5 54.5t22.5 54.5t54.5 22.5t54.5 -22.5t22.5 -54.5t-22.5 -54.5t-54.5 -22.5z" />
    <glyph glyph-name="multiply" unicode="&#xd7;" horiz-adv-x="600" 
d="M161 143l-81 80l140 140l-140 139l81 80l139 -139l139 139l81 -80l-140 -140l140 -139l-81 -80l-139 139z" />
    <glyph glyph-name="Oslash" unicode="&#xd8;" horiz-adv-x="824" 
d="M193 362q0 -84 47 -145l286 342q-53 32 -114 32q-93 0 -156 -66.5t-63 -162.5zM34 362q0 158 108.5 265.5t269.5 107.5q117 0 211 -61l59 71l60 -50l-58 -70q106 -104 106 -263q0 -158 -108.5 -265.5t-269.5 -107.5q-117 0 -211 61l-59 -71l-60 50l58 70
q-106 104 -106 263zM631 362q0 84 -47 145l-286 -342q53 -32 114 -32q93 0 156 66.5t63 162.5z" />
    <glyph glyph-name="Ugrave" unicode="&#xd9;" horiz-adv-x="749" 
d="M113 107q-54 80 -54 240v377h159v-371q0 -119 34.5 -170t125.5 -51q86 0 122.5 51t36.5 169v372h153v-373q0 -167 -56 -246q-39 -55 -106.5 -85.5t-153.5 -30.5q-87 0 -155 31t-106 87zM355 795l-116 164h136l84 -164h-104z" />
    <glyph glyph-name="Uacute" unicode="&#xda;" horiz-adv-x="749" 
d="M113 107q-54 80 -54 240v377h159v-371q0 -119 34.5 -170t125.5 -51q86 0 122.5 51t36.5 169v372h153v-373q0 -167 -56 -246q-39 -55 -106.5 -85.5t-153.5 -30.5q-87 0 -155 31t-106 87zM515 959l-116 -164h-104l84 164h136z" />
    <glyph glyph-name="Ucircumflex" unicode="&#xdb;" horiz-adv-x="749" 
d="M113 107q-54 80 -54 240v377h159v-371q0 -119 34.5 -170t125.5 -51q86 0 122.5 51t36.5 169v372h153v-373q0 -167 -56 -246q-39 -55 -106.5 -85.5t-153.5 -30.5q-87 0 -155 31t-106 87zM200 795l118 164h118l118 -164h-102l-75 91l-75 -91h-102z" />
    <glyph glyph-name="Udieresis" unicode="&#xdc;" horiz-adv-x="749" 
d="M113 107q-54 80 -54 240v377h159v-371q0 -119 34.5 -170t125.5 -51q86 0 122.5 51t36.5 169v372h153v-373q0 -167 -56 -246q-39 -55 -106.5 -85.5t-153.5 -30.5q-87 0 -155 31t-106 87zM265 803q-31 0 -54 22.5t-23 54.5t23 54.5t54 22.5t54 -22.5t23 -54.5t-23 -54.5
t-54 -22.5zM489 803q-31 0 -54 22.5t-23 54.5t23 54.5t54 22.5t54 -22.5t23 -54.5t-23 -54.5t-54 -22.5z" />
    <glyph glyph-name="Yacute" unicode="&#xdd;" horiz-adv-x="689" 
d="M266 0v327l-279 397h185l88 -131q35 -51 87 -133h2q49 77 87 134l87 130h179l-277 -396v-328h-159zM485 959l-116 -164h-104l84 164h136z" />
    <glyph glyph-name="Thorn" unicode="&#xde;" horiz-adv-x="639" 
d="M509 177q-76 -45 -234 -45h-50v-132h-159v724h159v-127h56q143 0 215 -38q117 -60 117 -193q0 -128 -104 -189zM225 261h58q94 0 126 18q45 25 45 79q0 61 -51 85q-33 15 -124 15h-54v-197z" />
    <glyph glyph-name="germandbls" unicode="&#xdf;" horiz-adv-x="655" 
d="M63 0v558q0 114 67 166q65 51 183 51q117 0 185 -48q68 -50 68 -145q0 -64 -28 -124q-44 -8 -74 -19q-54 -20 -54 -54q0 -7 2 -13t6.5 -11.5t9 -9t14 -9t16 -8.5t20.5 -9t22 -10q38 -18 61.5 -33.5t45.5 -49.5t22 -79q0 -79 -58.5 -121.5t-141.5 -42.5q-86 0 -158 38v130
q34 -21 76.5 -36t74.5 -15q57 0 57 42q0 11 -4 19t-14.5 15t-19.5 11.5t-29 13t-33 14.5q-57 28 -87 64t-30 90q0 71 54 117q37 32 92 48q4 16 4 30q0 36 -26 56q-24 18 -72 18q-52 0 -74 -21q-25 -22 -25 -75v-548h-152z" />
    <glyph glyph-name="agrave" unicode="&#xe0;" horiz-adv-x="537" 
d="M203 -11q-67 0 -114 32q-58 40 -58 115q0 78 60 119q51 35 138 35q45 0 85 -9v19q0 35 -19 52q-23 21 -76 21q-72 0 -144 -39v131q76 38 172 38q107 0 164 -47q55 -45 55 -136v-167q0 -39 30 -39q13 0 25 6v-114q-28 -15 -73 -15q-68 0 -106 39h-2q-57 -41 -137 -41z
M245 101q36 0 69 20v72q-22 7 -54 7q-78 0 -78 -50q0 -23 18 -36t45 -13zM246 563l-116 164h136l84 -164h-104z" />
    <glyph glyph-name="aacute" unicode="&#xe1;" horiz-adv-x="537" 
d="M203 -11q-67 0 -114 32q-58 40 -58 115q0 78 60 119q51 35 138 35q45 0 85 -9v19q0 35 -19 52q-23 21 -76 21q-72 0 -144 -39v131q76 38 172 38q107 0 164 -47q55 -45 55 -136v-167q0 -39 30 -39q13 0 25 6v-114q-28 -15 -73 -15q-68 0 -106 39h-2q-57 -41 -137 -41z
M245 101q36 0 69 20v72q-22 7 -54 7q-78 0 -78 -50q0 -23 18 -36t45 -13zM406 727l-116 -164h-104l84 164h136z" />
    <glyph glyph-name="acircumflex" unicode="&#xe2;" horiz-adv-x="537" 
d="M203 -11q-67 0 -114 32q-58 40 -58 115q0 78 60 119q51 35 138 35q45 0 85 -9v19q0 35 -19 52q-23 21 -76 21q-72 0 -144 -39v131q76 38 172 38q107 0 164 -47q55 -45 55 -136v-167q0 -39 30 -39q13 0 25 6v-114q-28 -15 -73 -15q-68 0 -106 39h-2q-57 -41 -137 -41z
M245 101q36 0 69 20v72q-22 7 -54 7q-78 0 -78 -50q0 -23 18 -36t45 -13zM91 563l118 164h118l118 -164h-102l-75 91l-75 -91h-102z" />
    <glyph glyph-name="atilde" unicode="&#xe3;" horiz-adv-x="537" 
d="M203 -11q-67 0 -114 32q-58 40 -58 115q0 78 60 119q51 35 138 35q45 0 85 -9v19q0 35 -19 52q-23 21 -76 21q-72 0 -144 -39v131q76 38 172 38q107 0 164 -47q55 -45 55 -136v-167q0 -39 30 -39q13 0 25 6v-114q-28 -15 -73 -15q-68 0 -106 39h-2q-57 -41 -137 -41z
M245 101q36 0 69 20v72q-22 7 -54 7q-78 0 -78 -50q0 -23 18 -36t45 -13zM260 596q-48 23 -69 23q-45 0 -87 -50l-2 1v113q37 37 89 37q34 0 85 -24q48 -23 69 -23q45 0 87 50l2 -1v-113q-37 -37 -89 -37q-34 0 -85 24z" />
    <glyph glyph-name="adieresis" unicode="&#xe4;" horiz-adv-x="537" 
d="M203 -11q-67 0 -114 32q-58 40 -58 115q0 78 60 119q51 35 138 35q45 0 85 -9v19q0 35 -19 52q-23 21 -76 21q-72 0 -144 -39v131q76 38 172 38q107 0 164 -47q55 -45 55 -136v-167q0 -39 30 -39q13 0 25 6v-114q-28 -15 -73 -15q-68 0 -106 39h-2q-57 -41 -137 -41z
M245 101q36 0 69 20v72q-22 7 -54 7q-78 0 -78 -50q0 -23 18 -36t45 -13zM156 571q-32 0 -54.5 22.5t-22.5 54.5t22.5 54.5t54.5 22.5t54.5 -22.5t22.5 -54.5t-22.5 -54.5t-54.5 -22.5zM380 571q-32 0 -54.5 22.5t-22.5 54.5t22.5 54.5t54.5 22.5t54.5 -22.5t22.5 -54.5
t-22.5 -54.5t-54.5 -22.5z" />
    <glyph glyph-name="aring" unicode="&#xe5;" horiz-adv-x="537" 
d="M203 -11q-67 0 -114 32q-58 40 -58 115q0 78 60 119q51 35 138 35q45 0 85 -9v19q0 35 -19 52q-23 21 -76 21q-72 0 -144 -39v131q76 38 172 38q107 0 164 -47q55 -45 55 -136v-167q0 -39 30 -39q13 0 25 6v-114q-28 -15 -73 -15q-68 0 -106 39h-2q-57 -41 -137 -41z
M245 101q36 0 69 20v72q-22 7 -54 7q-78 0 -78 -50q0 -23 18 -36t45 -13zM268 541q-56 0 -93 35.5t-37 88.5t37 88.5t93 35.5t93 -35.5t37 -88.5t-37 -88.5t-93 -35.5zM268 605q26 0 42 17t16 43t-16 43t-42 17t-42 -17t-16 -43t16 -43t42 -17z" />
    <glyph glyph-name="ae" unicode="&#xe6;" horiz-adv-x="829" 
d="M243 503q113 0 166 -53h2q62 53 150 53q96 0 164 -63.5t68 -181.5q0 -32 -3 -52h-330q26 -99 142 -99q84 0 164 54v-127q-73 -45 -184 -45q-131 0 -203 71q-74 -71 -174 -71q-67 0 -115 33q-59 41 -59 115q0 77 60 118q51 35 136 35q40 0 82 -8v18q0 35 -19 52
q-23 21 -73 21q-71 0 -142 -39v131q74 38 168 38zM558 388q-36 0 -62.5 -22t-36.5 -64h194q-6 39 -32 62.5t-63 23.5zM330 136q-12 29 -16 57q-29 7 -56 7q-80 0 -80 -51q0 -23 18 -35.5t46 -12.5q48 0 88 35z" />
    <glyph glyph-name="ccedilla" unicode="&#xe7;" horiz-adv-x="512" 
d="M225 -87l26 81q-97 17 -157.5 85.5t-60.5 165.5q0 114 82 186t200 72q80 0 146 -33v-141q-72 46 -139 46q-60 0 -98.5 -36.5t-38.5 -92.5t39 -92t100 -36q79 0 144 49v-140q-66 -36 -159 -38l-8 -26q88 -18 88 -91q0 -42 -31 -67.5t-82 -25.5q-45 0 -87 19l21 66
q36 -19 65 -19q39 0 39 26q0 36 -89 42z" />
    <glyph glyph-name="egrave" unicode="&#xe8;" horiz-adv-x="561" 
d="M522 206h-334q12 -49 50 -74t93 -25q87 0 167 54v-127q-72 -45 -187 -45q-123 0 -201 70.5t-78 184.5t76 186.5t182 72.5q98 0 166.5 -64t68.5 -181q0 -32 -3 -52zM288 387q-36 0 -64 -22t-37 -63h198q-7 39 -33.5 62t-63.5 23zM258 563l-116 164h136l84 -164h-104z" />
    <glyph glyph-name="eacute" unicode="&#xe9;" horiz-adv-x="561" 
d="M522 206h-334q12 -49 50 -74t93 -25q87 0 167 54v-127q-72 -45 -187 -45q-123 0 -201 70.5t-78 184.5t76 186.5t182 72.5q98 0 166.5 -64t68.5 -181q0 -32 -3 -52zM288 387q-36 0 -64 -22t-37 -63h198q-7 39 -33.5 62t-63.5 23zM418 727l-116 -164h-104l84 164h136z" />
    <glyph glyph-name="ecircumflex" unicode="&#xea;" horiz-adv-x="561" 
d="M522 206h-334q12 -49 50 -74t93 -25q87 0 167 54v-127q-72 -45 -187 -45q-123 0 -201 70.5t-78 184.5t76 186.5t182 72.5q98 0 166.5 -64t68.5 -181q0 -32 -3 -52zM288 387q-36 0 -64 -22t-37 -63h198q-7 39 -33.5 62t-63.5 23zM103 563l118 164h118l118 -164h-102
l-75 91l-75 -91h-102z" />
    <glyph glyph-name="edieresis" unicode="&#xeb;" horiz-adv-x="561" 
d="M522 206h-334q12 -49 50 -74t93 -25q87 0 167 54v-127q-72 -45 -187 -45q-123 0 -201 70.5t-78 184.5t76 186.5t182 72.5q98 0 166.5 -64t68.5 -181q0 -32 -3 -52zM288 387q-36 0 -64 -22t-37 -63h198q-7 39 -33.5 62t-63.5 23zM168 571q-32 0 -54.5 22.5t-22.5 54.5
t22.5 54.5t54.5 22.5t54.5 -22.5t22.5 -54.5t-22.5 -54.5t-54.5 -22.5zM392 571q-32 0 -54.5 22.5t-22.5 54.5t22.5 54.5t54.5 22.5t54.5 -22.5t22.5 -54.5t-22.5 -54.5t-54.5 -22.5z" />
    <glyph glyph-name="igrave" unicode="&#xec;" horiz-adv-x="278" 
d="M63 0v492h152v-492h-152zM117 563l-116 164h136l84 -164h-104z" />
    <glyph glyph-name="iacute" unicode="&#xed;" horiz-adv-x="278" 
d="M63 0v492h152v-492h-152zM277 727l-116 -164h-104l84 164h136z" />
    <glyph glyph-name="icircumflex" unicode="&#xee;" horiz-adv-x="278" 
d="M63 0v492h152v-492h-152zM-38 563l118 164h118l118 -164h-102l-75 91l-75 -91h-102z" />
    <glyph glyph-name="idieresis" unicode="&#xef;" horiz-adv-x="278" 
d="M63 0v492h152v-492h-152zM27 571q-31 0 -54 22.5t-23 54.5t23 54.5t54 22.5t54 -22.5t23 -54.5t-23 -54.5t-54 -22.5zM251 571q-31 0 -54 22.5t-23 54.5t23 54.5t54 22.5t54 -22.5t23 -54.5t-23 -54.5t-54 -22.5z" />
    <glyph glyph-name="eth" unicode="&#xf0;" horiz-adv-x="583" 
d="M118 488l-19 91l91 33q-30 19 -80 46l93 91q66 -35 129 -84l121 45l19 -91l-65 -24q147 -159 147 -340q0 -124 -73.5 -195t-190.5 -71q-118 0 -190.5 69t-72.5 177q0 103 66.5 173t169.5 70q47 0 81 -21l2 2q-25 45 -70 87zM179 239q0 -52 30.5 -86.5t80.5 -34.5
q51 0 81 34.5t30 87.5q0 54 -31 87t-81 33t-80 -34t-30 -87z" />
    <glyph glyph-name="ntilde" unicode="&#xf1;" horiz-adv-x="600" 
d="M63 0v492h150v-45l2 -1q70 57 152 57q81 0 129 -50q43 -46 43 -146v-307h-152v282q0 49 -17 69q-18 21 -52 21q-50 0 -103 -41v-331h-152zM292 596q-48 23 -69 23q-45 0 -87 -50l-2 1v113q37 37 89 37q34 0 85 -24q48 -23 69 -23q45 0 87 50l2 -1v-113q-37 -37 -89 -37
q-34 0 -85 24z" />
    <glyph glyph-name="ograve" unicode="&#xf2;" horiz-adv-x="612" 
d="M184 246q0 -53 35 -89.5t87 -36.5t87 36.5t35 89.5t-35 89.5t-87 36.5t-87 -36.5t-35 -89.5zM32 246q0 109 78.5 183t195.5 74t195.5 -74t78.5 -183t-78.5 -183t-195.5 -74t-195.5 74t-78.5 183zM284 563l-116 164h136l84 -164h-104z" />
    <glyph glyph-name="oacute" unicode="&#xf3;" horiz-adv-x="612" 
d="M184 246q0 -53 35 -89.5t87 -36.5t87 36.5t35 89.5t-35 89.5t-87 36.5t-87 -36.5t-35 -89.5zM32 246q0 109 78.5 183t195.5 74t195.5 -74t78.5 -183t-78.5 -183t-195.5 -74t-195.5 74t-78.5 183zM444 727l-116 -164h-104l84 164h136z" />
    <glyph glyph-name="ocircumflex" unicode="&#xf4;" horiz-adv-x="612" 
d="M184 246q0 -53 35 -89.5t87 -36.5t87 36.5t35 89.5t-35 89.5t-87 36.5t-87 -36.5t-35 -89.5zM32 246q0 109 78.5 183t195.5 74t195.5 -74t78.5 -183t-78.5 -183t-195.5 -74t-195.5 74t-78.5 183zM129 563l118 164h118l118 -164h-102l-75 91l-75 -91h-102z" />
    <glyph glyph-name="otilde" unicode="&#xf5;" horiz-adv-x="612" 
d="M184 246q0 -53 35 -89.5t87 -36.5t87 36.5t35 89.5t-35 89.5t-87 36.5t-87 -36.5t-35 -89.5zM32 246q0 109 78.5 183t195.5 74t195.5 -74t78.5 -183t-78.5 -183t-195.5 -74t-195.5 74t-78.5 183zM298 596q-48 23 -69 23q-45 0 -87 -50l-2 1v113q37 37 89 37q34 0 85 -24
q48 -23 69 -23q45 0 87 50l2 -1v-113q-37 -37 -89 -37q-34 0 -85 24z" />
    <glyph glyph-name="odieresis" unicode="&#xf6;" horiz-adv-x="612" 
d="M184 246q0 -53 35 -89.5t87 -36.5t87 36.5t35 89.5t-35 89.5t-87 36.5t-87 -36.5t-35 -89.5zM32 246q0 109 78.5 183t195.5 74t195.5 -74t78.5 -183t-78.5 -183t-195.5 -74t-195.5 74t-78.5 183zM194 571q-32 0 -54.5 22.5t-22.5 54.5t22.5 54.5t54.5 22.5t54.5 -22.5
t22.5 -54.5t-22.5 -54.5t-54.5 -22.5zM418 571q-32 0 -54.5 22.5t-22.5 54.5t22.5 54.5t54.5 22.5t54.5 -22.5t22.5 -54.5t-22.5 -54.5t-54.5 -22.5z" />
    <glyph glyph-name="divide" unicode="&#xf7;" horiz-adv-x="600" 
d="M220 567q0 32 23 54.5t55 22.5t55 -22.5t23 -54.5t-23 -54.5t-55 -22.5t-55 22.5t-23 54.5zM54 307v110h492v-110h-492zM222 157q0 32 23 54.5t55 22.5t55 -22.5t23 -54.5t-23 -54.5t-55 -22.5t-55 22.5t-23 54.5z" />
    <glyph glyph-name="oslash" unicode="&#xf8;" horiz-adv-x="612" 
d="M184 247q0 -39 19 -71l158 182q-25 14 -55 14q-52 0 -87 -36t-35 -89zM32 246q0 109 78 183t196 74q80 0 147 -38l46 53l49 -40l-44 -51q76 -74 76 -181q0 -109 -78 -183t-196 -74q-81 0 -147 38l-46 -53l-49 40l44 51q-76 74 -76 181zM428 245q0 39 -19 71l-158 -182
q25 -14 55 -14q52 0 87 36t35 89z" />
    <glyph glyph-name="ugrave" unicode="&#xf9;" horiz-adv-x="605" 
d="M110 38q-47 48 -47 151v303h152v-280q0 -51 19 -71q19 -22 54 -22q54 0 100 44v329h152v-492h-150v46l-2 1q-67 -58 -150 -58q-81 0 -128 49zM280 563l-116 164h136l84 -164h-104z" />
    <glyph glyph-name="uacute" unicode="&#xfa;" horiz-adv-x="605" 
d="M110 38q-47 48 -47 151v303h152v-280q0 -51 19 -71q19 -22 54 -22q54 0 100 44v329h152v-492h-150v46l-2 1q-67 -58 -150 -58q-81 0 -128 49zM440 727l-116 -164h-104l84 164h136z" />
    <glyph glyph-name="ucircumflex" unicode="&#xfb;" horiz-adv-x="605" 
d="M110 38q-47 48 -47 151v303h152v-280q0 -51 19 -71q19 -22 54 -22q54 0 100 44v329h152v-492h-150v46l-2 1q-67 -58 -150 -58q-81 0 -128 49zM125 563l118 164h118l118 -164h-102l-75 91l-75 -91h-102z" />
    <glyph glyph-name="udieresis" unicode="&#xfc;" horiz-adv-x="605" 
d="M110 38q-47 48 -47 151v303h152v-280q0 -51 19 -71q19 -22 54 -22q54 0 100 44v329h152v-492h-150v46l-2 1q-67 -58 -150 -58q-81 0 -128 49zM190 571q-32 0 -54.5 22.5t-22.5 54.5t22.5 54.5t54.5 22.5t54.5 -22.5t22.5 -54.5t-22.5 -54.5t-54.5 -22.5zM414 571
q-32 0 -54.5 22.5t-22.5 54.5t22.5 54.5t54.5 22.5t54.5 -22.5t22.5 -54.5t-22.5 -54.5t-54.5 -22.5z" />
    <glyph glyph-name="yacute" unicode="&#xfd;" horiz-adv-x="558" 
d="M232 -220h-155l129 274l-200 438h160l51 -122q33 -80 63 -156h2q31 75 67 159l52 119h151zM422 727l-116 -164h-104l84 164h136z" />
    <glyph glyph-name="thorn" unicode="&#xfe;" horiz-adv-x="604" 
d="M63 -220v984h152v-295l2 -1q50 35 119 35q97 0 165 -69.5t68 -181.5q0 -116 -74.5 -189.5t-186.5 -73.5q-48 0 -91 16l-2 -1v-224h-152zM215 351v-221q36 -18 78 -18q58 0 90.5 38t32.5 95t-31.5 94t-85.5 37q-42 0 -84 -25z" />
    <glyph glyph-name="ydieresis" unicode="&#xff;" horiz-adv-x="558" 
d="M232 -220h-155l129 274l-200 438h160l51 -122q33 -80 63 -156h2q31 75 67 159l52 119h151zM172 571q-32 0 -54.5 22.5t-22.5 54.5t22.5 54.5t54.5 22.5t54.5 -22.5t22.5 -54.5t-22.5 -54.5t-54.5 -22.5zM396 571q-32 0 -54.5 22.5t-22.5 54.5t22.5 54.5t54.5 22.5
t54.5 -22.5t22.5 -54.5t-22.5 -54.5t-54.5 -22.5z" />
    <glyph glyph-name="Amacron" unicode="&#x100;" horiz-adv-x="748" 
d="M3 0l294 724h154l294 -724h-170l-58 152h-292l-59 -152h-163zM303 354l-29 -77h195l-30 81q-39 106 -66 184h-2q-32 -91 -68 -188zM221 827v100h306v-100h-306z" />
    <glyph glyph-name="amacron" unicode="&#x101;" horiz-adv-x="537" 
d="M203 -11q-67 0 -114 32q-58 40 -58 115q0 78 60 119q51 35 138 35q45 0 85 -9v19q0 35 -19 52q-23 21 -76 21q-72 0 -144 -39v131q76 38 172 38q107 0 164 -47q55 -45 55 -136v-167q0 -39 30 -39q13 0 25 6v-114q-28 -15 -73 -15q-68 0 -106 39h-2q-57 -41 -137 -41z
M245 101q36 0 69 20v72q-22 7 -54 7q-78 0 -78 -50q0 -23 18 -36t45 -13zM115 595v100h306v-100h-306z" />
    <glyph glyph-name="Abreve" unicode="&#x102;" horiz-adv-x="748" 
d="M3 0l294 724h154l294 -724h-170l-58 152h-292l-59 -152h-163zM303 354l-29 -77h195l-30 81q-39 106 -66 184h-2q-32 -91 -68 -188zM374 795q-75 0 -118 44.5t-45 119.5h84q6 -87 79 -87t79 87h84q-2 -75 -45 -119.5t-118 -44.5z" />
    <glyph glyph-name="abreve" unicode="&#x103;" horiz-adv-x="537" 
d="M203 -11q-67 0 -114 32q-58 40 -58 115q0 78 60 119q51 35 138 35q45 0 85 -9v19q0 35 -19 52q-23 21 -76 21q-72 0 -144 -39v131q76 38 172 38q107 0 164 -47q55 -45 55 -136v-167q0 -39 30 -39q13 0 25 6v-114q-28 -15 -73 -15q-68 0 -106 39h-2q-57 -41 -137 -41z
M245 101q36 0 69 20v72q-22 7 -54 7q-78 0 -78 -50q0 -23 18 -36t45 -13zM268 563q-75 0 -118 44.5t-45 119.5h84q6 -87 79 -87t79 87h84q-2 -75 -45 -119.5t-118 -44.5z" />
    <glyph glyph-name="Aogonek" unicode="&#x104;" horiz-adv-x="748" 
d="M3 0l294 724h154l294 -724q-60 -18 -87 -46t-27 -53q0 -40 45 -40q22 0 49 8v-88q-38 -12 -78 -12q-63 0 -101 29.5t-38 77.5q0 72 67 124l-58 152h-292l-59 -152h-163zM303 354l-29 -77h195l-30 81q-39 106 -66 184h-2q-32 -91 -68 -188z" />
    <glyph glyph-name="aogonek" unicode="&#x105;" horiz-adv-x="537" 
d="M521 6q-53 -16 -83.5 -47t-30.5 -59q0 -16 11.5 -26.5t32.5 -10.5t50 8v-90q-40 -12 -79 -12q-63 0 -100.5 30t-37.5 78q0 77 82 132v2q-14 8 -24 19h-2q-57 -41 -137 -41q-67 0 -114 32q-58 40 -58 115q0 78 60 119q51 35 138 35q45 0 85 -9v19q0 35 -19 52
q-23 21 -76 21q-72 0 -144 -39v131q76 38 172 38q107 0 164 -47q55 -45 55 -136v-167q0 -39 30 -39q13 0 25 6v-114zM245 101q36 0 69 20v72q-22 7 -54 7q-78 0 -78 -50q0 -23 18 -36t45 -13z" />
    <glyph glyph-name="Cacute" unicode="&#x106;" horiz-adv-x="681" 
d="M35 361q0 159 110.5 266.5t283.5 107.5q109 0 201 -45v-161q-93 63 -200 63q-104 0 -170 -65t-66 -164t66.5 -165t175.5 -66q107 0 205 67v-162q-90 -48 -212 -48q-173 0 -283.5 106t-110.5 266zM578 959l-116 -164h-104l84 164h136z" />
    <glyph glyph-name="cacute" unicode="&#x107;" horiz-adv-x="512" 
d="M33 245q0 114 82 186t200 72q80 0 146 -33v-141q-72 46 -139 46q-60 0 -98.5 -36.5t-38.5 -92.5t39 -92t100 -36q79 0 144 49v-140q-69 -38 -161 -38q-119 0 -196.5 72.5t-77.5 183.5zM466 727l-116 -164h-104l84 164h136z" />
    <glyph glyph-name="Ccircumflex" unicode="&#x108;" horiz-adv-x="681" 
d="M35 361q0 159 110.5 266.5t283.5 107.5q109 0 201 -45v-161q-93 63 -200 63q-104 0 -170 -65t-66 -164t66.5 -165t175.5 -66q107 0 205 67v-162q-90 -48 -212 -48q-173 0 -283.5 106t-110.5 266zM213 795l118 164h118l118 -164h-102l-75 91l-75 -91h-102z" />
    <glyph glyph-name="ccircumflex" unicode="&#x109;" horiz-adv-x="512" 
d="M33 245q0 114 82 186t200 72q80 0 146 -33v-141q-72 46 -139 46q-60 0 -98.5 -36.5t-38.5 -92.5t39 -92t100 -36q79 0 144 49v-140q-69 -38 -161 -38q-119 0 -196.5 72.5t-77.5 183.5zM115 563l118 164h118l118 -164h-102l-75 91l-75 -91h-102z" />
    <glyph glyph-name="Cdotaccent" unicode="&#x10a;" horiz-adv-x="681" 
d="M35 361q0 159 110.5 266.5t283.5 107.5q109 0 201 -45v-161q-93 63 -200 63q-104 0 -170 -65t-66 -164t66.5 -165t175.5 -66q107 0 205 67v-162q-90 -48 -212 -48q-173 0 -283.5 106t-110.5 266zM390 803q-32 0 -54.5 22.5t-22.5 54.5t22.5 54.5t54.5 22.5t54.5 -22.5
t22.5 -54.5t-22.5 -54.5t-54.5 -22.5z" />
    <glyph glyph-name="cdotaccent" unicode="&#x10b;" horiz-adv-x="512" 
d="M33 245q0 114 82 186t200 72q80 0 146 -33v-141q-72 46 -139 46q-60 0 -98.5 -36.5t-38.5 -92.5t39 -92t100 -36q79 0 144 49v-140q-69 -38 -161 -38q-119 0 -196.5 72.5t-77.5 183.5zM292 571q-32 0 -54.5 22.5t-22.5 54.5t22.5 54.5t54.5 22.5t54.5 -22.5t22.5 -54.5
t-22.5 -54.5t-54.5 -22.5z" />
    <glyph glyph-name="Ccaron" unicode="&#x10c;" horiz-adv-x="681" 
d="M35 361q0 159 110.5 266.5t283.5 107.5q109 0 201 -45v-161q-93 63 -200 63q-104 0 -170 -65t-66 -164t66.5 -165t175.5 -66q107 0 205 67v-162q-90 -48 -212 -48q-173 0 -283.5 106t-110.5 266zM567 959l-118 -164h-118l-118 164h102l75 -91l75 91h102z" />
    <glyph glyph-name="ccaron" unicode="&#x10d;" horiz-adv-x="512" 
d="M33 245q0 114 82 186t200 72q80 0 146 -33v-141q-72 46 -139 46q-60 0 -98.5 -36.5t-38.5 -92.5t39 -92t100 -36q79 0 144 49v-140q-69 -38 -161 -38q-119 0 -196.5 72.5t-77.5 183.5zM469 727l-118 -164h-118l-118 164h102l75 -91l75 91h102z" />
    <glyph glyph-name="Dcaron" unicode="&#x10e;" horiz-adv-x="743" 
d="M66 0v724h203q215 0 329 -93.5t114 -267.5q0 -172 -112 -267.5t-338 -95.5h-196zM225 139h44q284 0 284 224q0 119 -84 178q-62 44 -201 44h-43v-446zM518 959l-118 -164h-118l-118 164h102l75 -91l75 91h102z" />
    <glyph glyph-name="dcaron" unicode="&#x10f;" horiz-adv-x="744" 
d="M36 236q0 116 74.5 191.5t185.5 75.5q50 0 93 -18l2 1v278h152v-764h-149v26l-2 1q-55 -38 -125 -38q-96 0 -163.5 68.5t-67.5 178.5zM189 243q0 -57 31 -93.5t86 -36.5q46 0 85 25v220q-38 19 -79 19q-58 0 -90.5 -38t-32.5 -96zM637 764h132l-80 -218h-102z" />
    <glyph glyph-name="Dcroat" unicode="&#x110;" horiz-adv-x="758" 
d="M2 313v111h79v300h203q199 0 304 -73q67 -47 103 -121t36 -167q0 -176 -120 -274q-110 -89 -330 -89h-196v313h-79zM240 139h44q148 0 214 57q70 60 70 167q0 119 -84 178q-62 44 -201 44h-43v-161h131v-111h-131v-174z" />
    <glyph glyph-name="dcroat" unicode="&#x111;" horiz-adv-x="606" 
d="M254 569v108h137v87h152v-87h67v-108h-67v-569h-149v26l-2 1q-55 -38 -125 -38q-96 0 -163.5 68.5t-67.5 178.5q0 116 74.5 191.5t185.5 75.5q50 0 93 -18l2 1v83h-137zM189 243q0 -57 31 -93.5t86 -36.5q46 0 85 25v220q-38 19 -79 19q-58 0 -90.5 -38t-32.5 -96z" />
    <glyph glyph-name="Emacron" unicode="&#x112;" horiz-adv-x="561" 
d="M66 0v724h447v-139h-288v-142h248v-132h-248v-172h299v-139h-458zM141 827v100h306v-100h-306z" />
    <glyph glyph-name="emacron" unicode="&#x113;" horiz-adv-x="561" 
d="M522 206h-334q12 -49 50 -74t93 -25q87 0 167 54v-127q-72 -45 -187 -45q-123 0 -201 70.5t-78 184.5t76 186.5t182 72.5q98 0 166.5 -64t68.5 -181q0 -32 -3 -52zM288 387q-36 0 -64 -22t-37 -63h198q-7 39 -33.5 62t-63.5 23zM127 595v100h306v-100h-306z" />
    <glyph glyph-name="Ebreve" unicode="&#x114;" horiz-adv-x="561" 
d="M66 0v724h447v-139h-288v-142h248v-132h-248v-172h299v-139h-458zM294 795q-75 0 -118 44.5t-45 119.5h84q6 -87 79 -87t79 87h84q-2 -75 -45 -119.5t-118 -44.5z" />
    <glyph glyph-name="ebreve" unicode="&#x115;" horiz-adv-x="561" 
d="M522 206h-334q12 -49 50 -74t93 -25q87 0 167 54v-127q-72 -45 -187 -45q-123 0 -201 70.5t-78 184.5t76 186.5t182 72.5q98 0 166.5 -64t68.5 -181q0 -32 -3 -52zM288 387q-36 0 -64 -22t-37 -63h198q-7 39 -33.5 62t-63.5 23zM280 563q-75 0 -118 44.5t-45 119.5h84
q6 -87 79 -87t79 87h84q-2 -75 -45 -119.5t-118 -44.5z" />
    <glyph glyph-name="Edotaccent" unicode="&#x116;" horiz-adv-x="561" 
d="M66 0v724h447v-139h-288v-142h248v-132h-248v-172h299v-139h-458zM294 803q-32 0 -54.5 22.5t-22.5 54.5t22.5 54.5t54.5 22.5t54.5 -22.5t22.5 -54.5t-22.5 -54.5t-54.5 -22.5z" />
    <glyph glyph-name="edotaccent" unicode="&#x117;" horiz-adv-x="561" 
d="M522 206h-334q12 -49 50 -74t93 -25q87 0 167 54v-127q-72 -45 -187 -45q-123 0 -201 70.5t-78 184.5t76 186.5t182 72.5q98 0 166.5 -64t68.5 -181q0 -32 -3 -52zM288 387q-36 0 -64 -22t-37 -63h198q-7 39 -33.5 62t-63.5 23zM280 571q-32 0 -54.5 22.5t-22.5 54.5
t22.5 54.5t54.5 22.5t54.5 -22.5t22.5 -54.5t-22.5 -54.5t-54.5 -22.5z" />
    <glyph glyph-name="Eogonek" unicode="&#x118;" horiz-adv-x="561" 
d="M66 0v724h447v-139h-288v-142h248v-132h-248v-172h299v-139q-48 -20 -71 -47.5t-23 -52.5q0 -39 45 -39q22 0 49 8v-88q-38 -12 -79 -12q-63 0 -100.5 29.5t-37.5 77.5q0 68 65 122l-1 2h-305z" />
    <glyph glyph-name="eogonek" unicode="&#x119;" horiz-adv-x="561" 
d="M498 34q-129 -74 -129 -133q0 -40 46 -40q17 0 47 7v-87q-38 -12 -77 -12q-62 0 -99 29.5t-37 77.5q0 60 52 111l-1 2q-118 4 -193 73.5t-75 181.5q0 114 76 186.5t182 72.5q98 0 166.5 -64t68.5 -181q0 -32 -3 -52h-334q12 -49 50 -74t93 -25q87 0 167 54v-127zM288 387
q-36 0 -64 -22t-37 -63h198q-7 39 -33.5 62t-63.5 23z" />
    <glyph glyph-name="Ecaron" unicode="&#x11a;" horiz-adv-x="561" 
d="M66 0v724h447v-139h-288v-142h248v-132h-248v-172h299v-139h-458zM471 959l-118 -164h-118l-118 164h102l75 -91l75 91h102z" />
    <glyph glyph-name="ecaron" unicode="&#x11b;" horiz-adv-x="561" 
d="M522 206h-334q12 -49 50 -74t93 -25q87 0 167 54v-127q-72 -45 -187 -45q-123 0 -201 70.5t-78 184.5t76 186.5t182 72.5q98 0 166.5 -64t68.5 -181q0 -32 -3 -52zM288 387q-36 0 -64 -22t-37 -63h198q-7 39 -33.5 62t-63.5 23zM457 727l-118 -164h-118l-118 164h102
l75 -91l75 91h102z" />
    <glyph glyph-name="Gcircumflex" unicode="&#x11c;" horiz-adv-x="736" 
d="M35 359q0 161 112 268.5t284 107.5q123 0 222 -55v-160q-105 72 -219 72q-107 0 -173.5 -66.5t-66.5 -165.5q0 -98 65.5 -165t173.5 -67q51 0 89 16v109h-126v132h280v-336q-108 -60 -246 -60q-173 0 -284 104.5t-111 265.5zM229 795l118 164h118l118 -164h-102l-75 91
l-75 -91h-102z" />
    <glyph glyph-name="gcircumflex" unicode="&#x11d;" horiz-adv-x="599" 
d="M103 -195v144q81 -50 159 -50q56 0 88 28.5t32 82.5v27l-2 1q-46 -33 -115 -33q-93 0 -161 66.5t-68 174.5q0 110 71.5 183.5t184.5 73.5q65 0 123 -28l119 21v-486q0 -114 -71.5 -177.5t-191.5 -63.5q-94 0 -168 36zM190 252q0 -55 31 -89t84 -34q43 0 77 21v206
q-34 18 -75 18q-56 0 -86.5 -35.5t-30.5 -86.5zM128 563l118 164h118l118 -164h-102l-75 91l-75 -91h-102z" />
    <glyph glyph-name="Gbreve" unicode="&#x11e;" horiz-adv-x="736" 
d="M35 359q0 161 112 268.5t284 107.5q123 0 222 -55v-160q-105 72 -219 72q-107 0 -173.5 -66.5t-66.5 -165.5q0 -98 65.5 -165t173.5 -67q51 0 89 16v109h-126v132h280v-336q-108 -60 -246 -60q-173 0 -284 104.5t-111 265.5zM406 795q-75 0 -118 44.5t-45 119.5h84
q6 -87 79 -87t79 87h84q-2 -75 -45 -119.5t-118 -44.5z" />
    <glyph glyph-name="gbreve" unicode="&#x11f;" horiz-adv-x="599" 
d="M103 -195v144q81 -50 159 -50q56 0 88 28.5t32 82.5v27l-2 1q-46 -33 -115 -33q-93 0 -161 66.5t-68 174.5q0 110 71.5 183.5t184.5 73.5q65 0 123 -28l119 21v-486q0 -114 -71.5 -177.5t-191.5 -63.5q-94 0 -168 36zM190 252q0 -55 31 -89t84 -34q43 0 77 21v206
q-34 18 -75 18q-56 0 -86.5 -35.5t-30.5 -86.5zM305 563q-75 0 -118 44.5t-45 119.5h84q6 -87 79 -87t79 87h84q-2 -75 -45 -119.5t-118 -44.5z" />
    <glyph glyph-name="Gdotaccent" unicode="&#x120;" horiz-adv-x="736" 
d="M35 359q0 161 112 268.5t284 107.5q123 0 222 -55v-160q-105 72 -219 72q-107 0 -173.5 -66.5t-66.5 -165.5q0 -98 65.5 -165t173.5 -67q51 0 89 16v109h-126v132h280v-336q-108 -60 -246 -60q-173 0 -284 104.5t-111 265.5zM406 803q-32 0 -54.5 22.5t-22.5 54.5
t22.5 54.5t54.5 22.5t54.5 -22.5t22.5 -54.5t-22.5 -54.5t-54.5 -22.5z" />
    <glyph glyph-name="gdotaccent" unicode="&#x121;" horiz-adv-x="599" 
d="M103 -195v144q81 -50 159 -50q56 0 88 28.5t32 82.5v27l-2 1q-46 -33 -115 -33q-93 0 -161 66.5t-68 174.5q0 110 71.5 183.5t184.5 73.5q65 0 123 -28l119 21v-486q0 -114 -71.5 -177.5t-191.5 -63.5q-94 0 -168 36zM190 252q0 -55 31 -89t84 -34q43 0 77 21v206
q-34 18 -75 18q-56 0 -86.5 -35.5t-30.5 -86.5zM305 571q-31 0 -54 22.5t-23 54.5t23 54.5t54 22.5t54 -22.5t23 -54.5t-23 -54.5t-54 -22.5z" />
    <glyph glyph-name="Gcommaaccent" unicode="&#x122;" horiz-adv-x="736" 
d="M35 359q0 161 112 268.5t284 107.5q123 0 222 -55v-160q-105 72 -219 72q-107 0 -173.5 -66.5t-66.5 -165.5q0 -98 65.5 -165t173.5 -67q51 0 89 16v109h-126v132h280v-336q-108 -60 -246 -60q-173 0 -284 104.5t-111 265.5zM364 -54h132l-80 -218h-102z" />
    <glyph glyph-name="gcommaaccent" unicode="&#x123;" horiz-adv-x="599" 
d="M103 -195v144q81 -50 159 -50q56 0 88 28.5t32 82.5v27l-2 1q-46 -33 -115 -33q-93 0 -161 66.5t-68 174.5q0 110 71.5 183.5t184.5 73.5q65 0 123 -28l119 21v-486q0 -114 -71.5 -177.5t-191.5 -63.5q-94 0 -168 36zM190 252q0 -55 31 -89t84 -34q43 0 77 21v206
q-34 18 -75 18q-56 0 -86.5 -35.5t-30.5 -86.5zM214 556l80 218h102l-50 -218h-132z" />
    <glyph glyph-name="Hcircumflex" unicode="&#x124;" horiz-adv-x="763" 
d="M66 0v724h159v-280h313v280h159v-724h-159v305h-313v-305h-159zM204 795l118 164h118l118 -164h-102l-75 91l-75 -91h-102z" />
    <glyph glyph-name="hcircumflex" unicode="&#x125;" horiz-adv-x="600" 
d="M63 0v764h152v-316l2 -1q67 56 150 56q81 0 129 -50q43 -46 43 -146v-307h-152v282q0 49 -17 69q-18 21 -52 21q-50 0 -103 -41v-331h-152zM-38 826l118 164h118l118 -164h-102l-75 91l-75 -91h-102z" />
    <glyph glyph-name="Hbar" unicode="&#x126;" horiz-adv-x="773" 
d="M0 527v111h71v86h159v-86h313v86h159v-86h71v-111h-71v-527h-159v305h-313v-305h-159v527h-71zM230 444h313v83h-313v-83z" />
    <glyph glyph-name="hbar" unicode="&#x127;" horiz-adv-x="600" 
d="M-4 569v108h67v87h152v-87h137v-108h-137v-121l2 -1q67 56 150 56q81 0 129 -50q43 -46 43 -146v-307h-152v282q0 49 -17 69q-18 21 -52 21q-50 0 -103 -41v-331h-152v569h-67z" />
    <glyph glyph-name="Itilde" unicode="&#x128;" horiz-adv-x="291" 
d="M66 0v724h159v-724h-159zM137 828q-48 23 -69 23q-45 0 -87 -50l-2 1v113q37 37 89 37q34 0 85 -24q48 -23 69 -23q45 0 87 50l2 -1v-113q-37 -37 -89 -37q-34 0 -85 24z" />
    <glyph glyph-name="itilde" unicode="&#x129;" horiz-adv-x="278" 
d="M63 0v492h152v-492h-152zM131 596q-48 23 -69 23q-45 0 -87 -50l-2 1v113q37 37 89 37q34 0 85 -24q48 -23 69 -23q45 0 87 50l2 -1v-113q-37 -37 -89 -37q-34 0 -85 24z" />
    <glyph glyph-name="Imacron" unicode="&#x12a;" horiz-adv-x="291" 
d="M66 0v724h159v-724h-159zM-8 827v100h306v-100h-306z" />
    <glyph glyph-name="imacron" unicode="&#x12b;" horiz-adv-x="278" 
d="M63 0v492h152v-492h-152zM-14 595v100h306v-100h-306z" />
    <glyph glyph-name="Ibreve" unicode="&#x12c;" horiz-adv-x="291" 
d="M66 0v724h159v-724h-159zM145 795q-75 0 -118 44.5t-45 119.5h84q6 -87 79 -87t79 87h84q-2 -75 -45 -119.5t-118 -44.5z" />
    <glyph glyph-name="ibreve" unicode="&#x12d;" horiz-adv-x="278" 
d="M63 0v492h152v-492h-152zM139 563q-75 0 -118 44.5t-45 119.5h84q6 -87 79 -87t79 87h84q-2 -75 -45 -119.5t-118 -44.5z" />
    <glyph glyph-name="Iogonek" unicode="&#x12e;" horiz-adv-x="291" 
d="M18 -116q0 63 48 116v724h159v-724q-42 -20 -63 -48t-21 -52q0 -39 45 -39q22 0 46 7v-88q-35 -11 -76 -11q-63 0 -100.5 32t-37.5 83z" />
    <glyph glyph-name="iogonek" unicode="&#x12f;" horiz-adv-x="278" 
d="M15 -116q0 61 48 116v492h152v-492q-39 -22 -58 -49.5t-19 -50.5q0 -39 45 -39q19 0 43 6v-88q-36 -10 -72 -10q-63 0 -101 32t-38 83zM51 648q0 36 26 61.5t62 25.5t62 -25.5t26 -61.5t-26 -61.5t-62 -25.5t-62 25.5t-26 61.5z" />
    <glyph glyph-name="Idotaccent" unicode="&#x130;" horiz-adv-x="291" 
d="M66 0v724h159v-724h-159zM145 803q-31 0 -54 22.5t-23 54.5t23 54.5t54 22.5t54 -22.5t23 -54.5t-23 -54.5t-54 -22.5z" />
    <glyph glyph-name="dotlessi" unicode="&#x131;" horiz-adv-x="278" 
d="M63 0v492h152v-492h-152z" />
    <glyph glyph-name="IJ" unicode="&#x132;" horiz-adv-x="695" 
d="M66 0v724h159v-724h-159zM470 235v489h159v-486q0 -124 -48 -183q-54 -66 -170 -66q-59 0 -107 19v143q49 -19 92 -19q44 0 59 22t15 81z" />
    <glyph glyph-name="ij" unicode="&#x133;" horiz-adv-x="559" 
d="M51 648q0 36 26 61.5t62 25.5t62 -25.5t26 -61.5t-26 -61.5t-62 -25.5t-62 25.5t-26 61.5zM63 0v492h152v-492h-152zM332 648q0 36 26 61.5t62 25.5t62 -25.5t26 -61.5t-26 -61.5t-62 -25.5t-62 25.5t-26 61.5zM344 -24v516h152v-506q0 -117 -45 -164q-52 -53 -149 -53
q-39 0 -69 8v125q27 -5 50 -5q37 0 49 18.5t12 60.5z" />
    <glyph glyph-name="Jcircumflex" unicode="&#x134;" horiz-adv-x="404" 
d="M179 235v489h159v-486q0 -124 -48 -183q-54 -66 -170 -66q-60 0 -107 19v143q49 -19 92 -19q44 0 59 22t15 81zM81 795l118 164h118l118 -164h-102l-75 91l-75 -91h-102z" />
    <glyph glyph-name="jcircumflex" unicode="&#x135;" horiz-adv-x="281" 
d="M66 -24v516h152v-506q0 -117 -45 -164q-52 -53 -155 -53q-30 0 -63 5v128q30 -5 50 -5q37 0 49 18.5t12 60.5zM-34 563l118 164h118l118 -164h-102l-75 91l-75 -91h-102z" />
    <glyph glyph-name="Kcommaaccent" unicode="&#x136;" horiz-adv-x="674" 
d="M66 0v724h159v-320l2 -1l253 321h189l-274 -336l297 -388h-196l-269 362l-2 -1v-361h-159zM295 -54h132l-80 -218h-102z" />
    <glyph glyph-name="kcommaaccent" unicode="&#x137;" horiz-adv-x="581" 
d="M63 0v764h152v-480l2 -1l172 209h173l-188 -220l202 -272h-180l-179 251l-2 -1v-250h-152zM248 -54h132l-80 -218h-102z" />
    <glyph glyph-name="kgreenlandic" unicode="&#x138;" horiz-adv-x="581" 
d="M63 0v492h152v-208l2 -1l172 209h173l-188 -220l202 -272h-180l-179 251l-2 -1v-250h-152z" />
    <glyph glyph-name="Lacute" unicode="&#x139;" horiz-adv-x="555" 
d="M66 0v724h159v-585h317v-139h-476zM305 959l-116 -164h-104l84 164h136z" />
    <glyph glyph-name="lacute" unicode="&#x13a;" horiz-adv-x="278" 
d="M63 0v764h152v-764h-152zM288 990l-116 -164h-104l84 164h136z" />
    <glyph glyph-name="Lcommaaccent" unicode="&#x13b;" horiz-adv-x="555" 
d="M66 0v724h159v-585h317v-139h-476zM255 -54h132l-80 -218h-102z" />
    <glyph glyph-name="lcommaaccent" unicode="&#x13c;" horiz-adv-x="278" 
d="M63 0v764h152v-764h-152zM97 -54h132l-80 -218h-102z" />
    <glyph glyph-name="Lcaron" unicode="&#x13d;" horiz-adv-x="555" 
d="M66 0v724h159v-585h317v-139h-476zM304 498l58 282h130l-93 -282h-95z" />
    <glyph glyph-name="lcaron" unicode="&#x13e;" horiz-adv-x="416" 
d="M63 0v764h152v-764h-152zM309 764h132l-80 -218h-102z" />
    <glyph glyph-name="Ldot" unicode="&#x13f;" horiz-adv-x="555" 
d="M66 0v724h159v-585h317v-139h-476zM333 406q0 37 27 63.5t65 26.5t65 -26.5t27 -63.5t-27 -63.5t-65 -26.5t-65 26.5t-27 63.5z" />
    <glyph glyph-name="ldot" unicode="&#x140;" horiz-adv-x="425" 
d="M63 0v764h152v-764h-152zM353 246q-31 0 -54 23t-23 54t23 54t54 23t54 -23t23 -54t-23 -54t-54 -23z" />
    <glyph glyph-name="Lslash" unicode="&#x141;" horiz-adv-x="563" 
d="M74 0v240l-85 -57v136l85 57v348h159v-242l122 82v-136l-122 -82v-207h317v-139h-476z" />
    <glyph glyph-name="lslash" unicode="&#x142;" horiz-adv-x="298" 
d="M73 0v255l-80 -53v136l80 53v373h152v-271l80 53v-136l-80 -53v-357h-152z" />
    <glyph glyph-name="Nacute" unicode="&#x143;" horiz-adv-x="788" 
d="M572 0l-217 292q-57 77 -136 187l-2 -1q2 -138 2 -209v-269h-153v724h150l217 -292q57 -77 136 -187l2 1q-2 138 -2 209v269h153v-724h-150zM532 959l-116 -164h-104l84 164h136z" />
    <glyph glyph-name="nacute" unicode="&#x144;" horiz-adv-x="600" 
d="M63 0v492h150v-45l2 -1q70 57 152 57q81 0 129 -50q43 -46 43 -146v-307h-152v282q0 49 -17 69q-18 21 -52 21q-50 0 -103 -41v-331h-152zM438 727l-116 -164h-104l84 164h136z" />
    <glyph glyph-name="Ncommaaccent" unicode="&#x145;" horiz-adv-x="788" 
d="M572 0l-217 292q-57 77 -136 187l-2 -1q2 -138 2 -209v-269h-153v724h150l217 -292q57 -77 136 -187l2 1q-2 138 -2 209v269h153v-724h-150zM352 -54h132l-80 -218h-102z" />
    <glyph glyph-name="ncommaaccent" unicode="&#x146;" horiz-adv-x="600" 
d="M63 0v492h150v-45l2 -1q70 57 152 57q81 0 129 -50q43 -46 43 -146v-307h-152v282q0 49 -17 69q-18 21 -52 21q-50 0 -103 -41v-331h-152zM258 -54h132l-80 -218h-102z" />
    <glyph glyph-name="Ncaron" unicode="&#x147;" horiz-adv-x="788" 
d="M572 0l-217 292q-57 77 -136 187l-2 -1q2 -138 2 -209v-269h-153v724h150l217 -292q57 -77 136 -187l2 1q-2 138 -2 209v269h153v-724h-150zM571 959l-118 -164h-118l-118 164h102l75 -91l75 91h102z" />
    <glyph glyph-name="ncaron" unicode="&#x148;" horiz-adv-x="600" 
d="M63 0v492h150v-45l2 -1q70 57 152 57q81 0 129 -50q43 -46 43 -146v-307h-152v282q0 49 -17 69q-18 21 -52 21q-50 0 -103 -41v-331h-152zM477 727l-118 -164h-118l-118 164h102l75 -91l75 91h102z" />
    <glyph glyph-name="napostrophe" unicode="&#x149;" horiz-adv-x="600" 
d="M63 0v492h150v-45l2 -1q70 57 152 57q81 0 129 -50q43 -46 43 -146v-307h-152v282q0 49 -17 69q-18 21 -52 21q-50 0 -103 -41v-331h-152zM104 772h132l-80 -218h-102z" />
    <glyph glyph-name="Eng" unicode="&#x14a;" horiz-adv-x="788" 
d="M722 724v-706q0 -124 -48 -183q-54 -66 -170 -66q-60 0 -107 19v143q49 -19 92 -19t58 22t16 78l-208 280q-57 77 -136 187l-2 -1q2 -138 2 -209v-269h-153v724h150l217 -292q57 -77 136 -187l2 1q-2 138 -2 209v269h153z" />
    <glyph glyph-name="eng" unicode="&#x14b;" horiz-adv-x="600" 
d="M63 0v492h150v-45l2 -1q70 57 152 57q81 0 129 -50q43 -46 43 -146v-321q0 -117 -45 -164q-52 -53 -149 -53q-39 0 -69 8v125q27 -5 50 -5q37 0 49 18.5t12 60.5v306q0 49 -17 69q-18 21 -52 21q-50 0 -103 -41v-331h-152z" />
    <glyph glyph-name="Omacron" unicode="&#x14c;" horiz-adv-x="824" 
d="M412 133q93 0 156 66.5t63 162.5t-63 162.5t-156 66.5t-156 -66.5t-63 -162.5t63 -162.5t156 -66.5zM412 -11q-161 0 -269.5 107.5t-108.5 265.5t108.5 265.5t269.5 107.5t269.5 -107.5t108.5 -265.5t-108.5 -265.5t-269.5 -107.5zM259 827v100h306v-100h-306z" />
    <glyph glyph-name="omacron" unicode="&#x14d;" horiz-adv-x="612" 
d="M184 246q0 -53 35 -89.5t87 -36.5t87 36.5t35 89.5t-35 89.5t-87 36.5t-87 -36.5t-35 -89.5zM32 246q0 109 78.5 183t195.5 74t195.5 -74t78.5 -183t-78.5 -183t-195.5 -74t-195.5 74t-78.5 183zM153 595v100h306v-100h-306z" />
    <glyph glyph-name="Obreve" unicode="&#x14e;" horiz-adv-x="824" 
d="M412 133q93 0 156 66.5t63 162.5t-63 162.5t-156 66.5t-156 -66.5t-63 -162.5t63 -162.5t156 -66.5zM412 -11q-161 0 -269.5 107.5t-108.5 265.5t108.5 265.5t269.5 107.5t269.5 -107.5t108.5 -265.5t-108.5 -265.5t-269.5 -107.5zM412 795q-75 0 -118 44.5t-45 119.5h84
q6 -87 79 -87t79 87h84q-2 -75 -45 -119.5t-118 -44.5z" />
    <glyph glyph-name="obreve" unicode="&#x14f;" horiz-adv-x="612" 
d="M184 246q0 -53 35 -89.5t87 -36.5t87 36.5t35 89.5t-35 89.5t-87 36.5t-87 -36.5t-35 -89.5zM32 246q0 109 78.5 183t195.5 74t195.5 -74t78.5 -183t-78.5 -183t-195.5 -74t-195.5 74t-78.5 183zM306 563q-75 0 -118 44.5t-45 119.5h84q6 -87 79 -87t79 87h84
q-2 -75 -45 -119.5t-118 -44.5z" />
    <glyph glyph-name="Ohungarumlaut" unicode="&#x150;" horiz-adv-x="824" 
d="M412 133q93 0 156 66.5t63 162.5t-63 162.5t-156 66.5t-156 -66.5t-63 -162.5t63 -162.5t156 -66.5zM412 -11q-161 0 -269.5 107.5t-108.5 265.5t108.5 265.5t269.5 107.5t269.5 -107.5t108.5 -265.5t-108.5 -265.5t-269.5 -107.5zM420 795l74 164h110l-97 -164h-87z
M256 795l74 164h110l-97 -164h-87z" />
    <glyph glyph-name="ohungarumlaut" unicode="&#x151;" horiz-adv-x="612" 
d="M184 246q0 -53 35 -89.5t87 -36.5t87 36.5t35 89.5t-35 89.5t-87 36.5t-87 -36.5t-35 -89.5zM32 246q0 109 78.5 183t195.5 74t195.5 -74t78.5 -183t-78.5 -183t-195.5 -74t-195.5 74t-78.5 183zM314 563l74 164h110l-97 -164h-87zM150 563l74 164h110l-97 -164h-87z" />
    <glyph glyph-name="OE" unicode="&#x152;" horiz-adv-x="936" 
d="M154 635q110 89 330 89h404v-139h-278v-142h238v-132h-238v-172h289v-139h-422q-199 0 -304 73q-67 47 -103 121t-36 167q0 176 120 274zM277 183q57 -41 174 -44v445q-127 -4 -188 -56q-70 -60 -70 -167q0 -119 84 -178z" />
    <glyph glyph-name="oe" unicode="&#x153;" horiz-adv-x="950" 
d="M683 503q95 0 163 -64t68 -181q0 -32 -3 -52h-330q26 -99 142 -99q84 0 164 54v-127q-73 -45 -184 -45q-131 0 -205 82h-2q-76 -82 -195 -82q-115 0 -192 73.5t-77 183.5q0 109 77 183t192 74q120 0 196 -84h2q74 84 184 84zM184 247q0 -54 34.5 -90.5t85.5 -36.5t85 36
t34 89t-34.5 90t-85.5 37t-85 -36t-34 -89zM679 387q-36 0 -62.5 -21.5t-36.5 -63.5h194q-6 39 -32 62t-63 23z" />
    <glyph glyph-name="Racute" unicode="&#x154;" horiz-adv-x="653" 
d="M66 0v724h227q312 0 312 -218q0 -71 -38 -124t-109 -76l204 -306h-183l-183 286h-71v-286h-159zM225 405h80q70 0 105.5 21t35.5 69t-36.5 69t-123.5 21h-61v-180zM444 959l-116 -164h-104l84 164h136z" />
    <glyph glyph-name="racute" unicode="&#x155;" horiz-adv-x="401" 
d="M63 0v492h149v-66l2 -1q52 73 143 73q17 0 32 -4v-143q-20 5 -41 5q-83 0 -133 -58v-298h-152zM338 727l-116 -164h-104l84 164h136z" />
    <glyph glyph-name="Rcommaaccent" unicode="&#x156;" horiz-adv-x="653" 
d="M66 0v724h227q312 0 312 -218q0 -71 -38 -124t-109 -76l204 -306h-183l-183 286h-71v-286h-159zM225 405h80q70 0 105.5 21t35.5 69t-36.5 69t-123.5 21h-61v-180zM264 -54h132l-80 -218h-102z" />
    <glyph glyph-name="rcommaaccent" unicode="&#x157;" horiz-adv-x="401" 
d="M63 0v492h149v-66l2 -1q52 73 143 73q17 0 32 -4v-143q-20 5 -41 5q-83 0 -133 -58v-298h-152zM106 -54h132l-80 -218h-102z" />
    <glyph glyph-name="Rcaron" unicode="&#x158;" horiz-adv-x="653" 
d="M66 0v724h227q312 0 312 -218q0 -71 -38 -124t-109 -76l204 -306h-183l-183 286h-71v-286h-159zM225 405h80q70 0 105.5 21t35.5 69t-36.5 69t-123.5 21h-61v-180zM483 959l-118 -164h-118l-118 164h102l75 -91l75 91h102z" />
    <glyph glyph-name="rcaron" unicode="&#x159;" horiz-adv-x="401" 
d="M63 0v492h149v-66l2 -1q52 73 143 73q17 0 32 -4v-143q-20 5 -41 5q-83 0 -133 -58v-298h-152zM377 727l-118 -164h-118l-118 164h102l75 -91l75 91h102z" />
    <glyph glyph-name="Sacute" unicode="&#x15a;" horiz-adv-x="576" 
d="M61 40v160q55 -35 117.5 -53.5t109.5 -18.5q46 0 73.5 19t27.5 58q0 16 -6 29t-14 21t-26 16t-31 12t-40.5 12t-43.5 13q-89 29 -139.5 75.5t-50.5 132.5q0 101 69.5 160t184.5 59q125 0 221 -52v-157q-54 34 -115 52t-107 18q-93 0 -93 -68q0 -19 6.5 -32t24 -22.5
t30.5 -14.5t45 -14.5t48 -14.5q95 -31 146 -79t51 -136q0 -105 -72.5 -165.5t-190.5 -60.5q-123 0 -225 51zM426 959l-116 -164h-104l84 164h136z" />
    <glyph glyph-name="sacute" unicode="&#x15b;" horiz-adv-x="494" 
d="M51 29v133q96 -56 192 -56q67 0 67 38q0 11 -5.5 18t-19 11.5t-26.5 7.5t-36.5 7t-41.5 9q-74 18 -111 51.5t-37 91.5q1 76 61 119.5t154 43.5q107 0 188 -39v-131q-93 53 -185 53q-64 0 -64 -35q0 -10 5.5 -17t18.5 -11.5t25.5 -7t36 -7t40.5 -8.5q76 -19 113.5 -51.5
t37.5 -92.5q-1 -79 -62.5 -123t-158.5 -44q-109 0 -192 40zM385 727l-116 -164h-104l84 164h136z" />
    <glyph glyph-name="Scircumflex" unicode="&#x15c;" horiz-adv-x="576" 
d="M61 40v160q55 -35 117.5 -53.5t109.5 -18.5q46 0 73.5 19t27.5 58q0 16 -6 29t-14 21t-26 16t-31 12t-40.5 12t-43.5 13q-89 29 -139.5 75.5t-50.5 132.5q0 101 69.5 160t184.5 59q125 0 221 -52v-157q-54 34 -115 52t-107 18q-93 0 -93 -68q0 -19 6.5 -32t24 -22.5
t30.5 -14.5t45 -14.5t48 -14.5q95 -31 146 -79t51 -136q0 -105 -72.5 -165.5t-190.5 -60.5q-123 0 -225 51zM111 795l118 164h118l118 -164h-102l-75 91l-75 -91h-102z" />
    <glyph glyph-name="scircumflex" unicode="&#x15d;" horiz-adv-x="494" 
d="M51 29v133q96 -56 192 -56q67 0 67 38q0 11 -5.5 18t-19 11.5t-26.5 7.5t-36.5 7t-41.5 9q-74 18 -111 51.5t-37 91.5q1 76 61 119.5t154 43.5q107 0 188 -39v-131q-93 53 -185 53q-64 0 -64 -35q0 -10 5.5 -17t18.5 -11.5t25.5 -7t36 -7t40.5 -8.5q76 -19 113.5 -51.5
t37.5 -92.5q-1 -79 -62.5 -123t-158.5 -44q-109 0 -192 40zM70 563l118 164h118l118 -164h-102l-75 91l-75 -91h-102z" />
    <glyph glyph-name="Scedilla" unicode="&#x15e;" horiz-adv-x="576" 
d="M231 -87l24 77q-109 7 -194 50v160q55 -35 117.5 -53.5t109.5 -18.5q46 0 73.5 19t27.5 58q0 16 -6 29t-14 21t-26 16t-31 12t-40.5 12t-43.5 13q-89 29 -139.5 75.5t-50.5 132.5q0 101 69.5 160t184.5 59q125 0 221 -52v-157q-54 34 -115 52t-107 18q-93 0 -93 -68
q0 -19 6.5 -32t24 -22.5t30.5 -14.5t45 -14.5t48 -14.5q95 -31 146 -79t51 -136q0 -98 -63.5 -157.5t-169.5 -67.5l-9 -27q88 -18 88 -91q0 -42 -31 -67.5t-82 -25.5q-45 0 -87 19l21 66q36 -19 65 -19q39 0 39 26q0 36 -89 42z" />
    <glyph glyph-name="scedilla" unicode="&#x15f;" horiz-adv-x="494" 
d="M192 -87l24 77q-96 5 -165 39v133q96 -56 192 -56q67 0 67 38q0 11 -5.5 18t-19 11.5t-26.5 7.5t-36.5 7t-41.5 9q-74 18 -111 51.5t-37 91.5q1 76 61 119.5t154 43.5q107 0 188 -39v-131q-93 53 -185 53q-64 0 -64 -35q0 -10 5.5 -17t18.5 -11.5t25.5 -7t36 -7
t40.5 -8.5q76 -19 113.5 -51.5t37.5 -92.5q-1 -72 -52 -115t-135 -50l-9 -28q88 -18 88 -91q0 -42 -31 -67.5t-82 -25.5q-45 0 -87 19l21 66q36 -19 65 -19q39 0 39 26q0 36 -89 42z" />
    <glyph glyph-name="Scaron" unicode="&#x160;" horiz-adv-x="576" 
d="M61 40v160q55 -35 117.5 -53.5t109.5 -18.5q46 0 73.5 19t27.5 58q0 16 -6 29t-14 21t-26 16t-31 12t-40.5 12t-43.5 13q-89 29 -139.5 75.5t-50.5 132.5q0 101 69.5 160t184.5 59q125 0 221 -52v-157q-54 34 -115 52t-107 18q-93 0 -93 -68q0 -19 6.5 -32t24 -22.5
t30.5 -14.5t45 -14.5t48 -14.5q95 -31 146 -79t51 -136q0 -105 -72.5 -165.5t-190.5 -60.5q-123 0 -225 51zM465 959l-118 -164h-118l-118 164h102l75 -91l75 91h102z" />
    <glyph glyph-name="scaron" unicode="&#x161;" horiz-adv-x="494" 
d="M51 29v133q96 -56 192 -56q67 0 67 38q0 11 -5.5 18t-19 11.5t-26.5 7.5t-36.5 7t-41.5 9q-74 18 -111 51.5t-37 91.5q1 76 61 119.5t154 43.5q107 0 188 -39v-131q-93 53 -185 53q-64 0 -64 -35q0 -10 5.5 -17t18.5 -11.5t25.5 -7t36 -7t40.5 -8.5q76 -19 113.5 -51.5
t37.5 -92.5q-1 -79 -62.5 -123t-158.5 -44q-109 0 -192 40zM424 727l-118 -164h-118l-118 164h102l75 -91l75 91h102z" />
    <glyph glyph-name="Tcommaaccent" unicode="&#x162;" horiz-adv-x="657" 
d="M249 0v585h-234v139h627v-139h-234v-585h-51l-12 -37q88 -18 88 -91q0 -42 -31 -67.5t-82 -25.5q-45 0 -87 19l20 63q36 -19 65 -19q39 0 39 26q0 36 -89 42l29 90h-48z" />
    <glyph glyph-name="tcommaaccent" unicode="&#x163;" horiz-adv-x="410" 
d="M183 -90l28 87q-41 12 -68 41q-43 46 -43 147v181h-80v126h80v128l152 26v-154h130v-126h-130v-165q0 -84 57 -84q33 0 73 20v-121q-41 -27 -114 -27l-8 -26q88 -18 88 -91q0 -42 -31 -67.5t-82 -25.5q-45 0 -87 19l20 63q36 -19 65 -19q39 0 39 26q0 36 -89 42z" />
    <glyph glyph-name="Tcaron" unicode="&#x164;" horiz-adv-x="657" 
d="M249 0v585h-234v139h627v-139h-234v-585h-159zM505 959l-118 -164h-118l-118 164h102l75 -91l75 91h102z" />
    <glyph glyph-name="tcaron" unicode="&#x165;" horiz-adv-x="410" 
d="M143 38q-43 46 -43 147v181h-80v126h80v128l152 26v-154h130v-126h-130v-165q0 -84 57 -84q33 0 73 20v-121q-41 -27 -111 -27q-82 0 -128 49zM357 772h132l-80 -218h-102z" />
    <glyph glyph-name="Tbar" unicode="&#x166;" horiz-adv-x="657" 
d="M133 289v111h116v185h-234v139h627v-139h-234v-185h116v-111h-116v-289h-159v289h-116z" />
    <glyph glyph-name="tbar" unicode="&#x167;" horiz-adv-x="418" 
d="M24 191v118h80v65h-80v118h80v128l152 26v-154h130v-118h-130v-65h130v-118h-130q1 -38 13.5 -58.5t43.5 -20.5q33 0 73 20v-116q-41 -27 -111 -27q-82 0 -128 49q-43 46 -43 147v6h-80z" />
    <glyph glyph-name="Utilde" unicode="&#x168;" horiz-adv-x="749" 
d="M113 107q-54 80 -54 240v377h159v-371q0 -119 34.5 -170t125.5 -51q86 0 122.5 51t36.5 169v372h153v-373q0 -167 -56 -246q-39 -55 -106.5 -85.5t-153.5 -30.5q-87 0 -155 31t-106 87zM369 828q-48 23 -69 23q-45 0 -87 -50l-2 1v113q37 37 89 37q34 0 85 -24
q48 -23 69 -23q45 0 87 50l2 -1v-113q-37 -37 -89 -37q-34 0 -85 24z" />
    <glyph glyph-name="utilde" unicode="&#x169;" horiz-adv-x="605" 
d="M110 38q-47 48 -47 151v303h152v-280q0 -51 19 -71q19 -22 54 -22q54 0 100 44v329h152v-492h-150v46l-2 1q-67 -58 -150 -58q-81 0 -128 49zM294 596q-48 23 -69 23q-45 0 -87 -50l-2 1v113q37 37 89 37q34 0 85 -24q48 -23 69 -23q45 0 87 50l2 -1v-113
q-37 -37 -89 -37q-34 0 -85 24z" />
    <glyph glyph-name="Umacron" unicode="&#x16a;" horiz-adv-x="749" 
d="M113 107q-54 80 -54 240v377h159v-371q0 -119 34.5 -170t125.5 -51q86 0 122.5 51t36.5 169v372h153v-373q0 -167 -56 -246q-39 -55 -106.5 -85.5t-153.5 -30.5q-87 0 -155 31t-106 87zM224 827v100h306v-100h-306z" />
    <glyph glyph-name="umacron" unicode="&#x16b;" horiz-adv-x="605" 
d="M110 38q-47 48 -47 151v303h152v-280q0 -51 19 -71q19 -22 54 -22q54 0 100 44v329h152v-492h-150v46l-2 1q-67 -58 -150 -58q-81 0 -128 49zM149 595v100h306v-100h-306z" />
    <glyph glyph-name="Ubreve" unicode="&#x16c;" horiz-adv-x="749" 
d="M113 107q-54 80 -54 240v377h159v-371q0 -119 34.5 -170t125.5 -51q86 0 122.5 51t36.5 169v372h153v-373q0 -167 -56 -246q-39 -55 -106.5 -85.5t-153.5 -30.5q-87 0 -155 31t-106 87zM377 795q-75 0 -118 44.5t-45 119.5h84q6 -87 79 -87t79 87h84q-2 -75 -45 -119.5
t-118 -44.5z" />
    <glyph glyph-name="ubreve" unicode="&#x16d;" horiz-adv-x="605" 
d="M110 38q-47 48 -47 151v303h152v-280q0 -51 19 -71q19 -22 54 -22q54 0 100 44v329h152v-492h-150v46l-2 1q-67 -58 -150 -58q-81 0 -128 49zM302 563q-75 0 -118 44.5t-45 119.5h84q6 -87 79 -87t79 87h84q-2 -75 -45 -119.5t-118 -44.5z" />
    <glyph glyph-name="Uring" unicode="&#x16e;" horiz-adv-x="749" 
d="M113 107q-54 80 -54 240v377h159v-371q0 -119 34.5 -170t125.5 -51q86 0 122.5 51t36.5 169v372h153v-373q0 -167 -56 -246q-39 -55 -106.5 -85.5t-153.5 -30.5q-87 0 -155 31t-106 87zM377 773q-56 0 -93 35.5t-37 88.5t37 88.5t93 35.5t93 -35.5t37 -88.5t-37 -88.5
t-93 -35.5zM377 837q26 0 42 17t16 43t-16 43t-42 17t-42 -17t-16 -43t16 -43t42 -17z" />
    <glyph glyph-name="uring" unicode="&#x16f;" horiz-adv-x="605" 
d="M110 38q-47 48 -47 151v303h152v-280q0 -51 19 -71q19 -22 54 -22q54 0 100 44v329h152v-492h-150v46l-2 1q-67 -58 -150 -58q-81 0 -128 49zM302 541q-56 0 -93 35.5t-37 88.5t37 88.5t93 35.5t93 -35.5t37 -88.5t-37 -88.5t-93 -35.5zM302 605q26 0 42 17t16 43t-16 43
t-42 17t-42 -17t-16 -43t16 -43t42 -17z" />
    <glyph glyph-name="Uhungarumlaut" unicode="&#x170;" horiz-adv-x="749" 
d="M113 107q-54 80 -54 240v377h159v-371q0 -119 34.5 -170t125.5 -51q86 0 122.5 51t36.5 169v372h153v-373q0 -167 -56 -246q-39 -55 -106.5 -85.5t-153.5 -30.5q-87 0 -155 31t-106 87zM385 795l74 164h110l-97 -164h-87zM221 795l74 164h110l-97 -164h-87z" />
    <glyph glyph-name="uhungarumlaut" unicode="&#x171;" horiz-adv-x="605" 
d="M110 38q-47 48 -47 151v303h152v-280q0 -51 19 -71q19 -22 54 -22q54 0 100 44v329h152v-492h-150v46l-2 1q-67 -58 -150 -58q-81 0 -128 49zM310 563l74 164h110l-97 -164h-87zM146 563l74 164h110l-97 -164h-87z" />
    <glyph glyph-name="Uogonek" unicode="&#x172;" horiz-adv-x="749" 
d="M218 724v-371q0 -113 28 -158q40 -63 132 -63q89 0 128 60q31 48 31 160v372h153v-373q0 -167 -56 -246q-56 -82 -172 -107q-77 -48 -77 -98q0 -39 45 -39q22 0 49 8v-88q-38 -12 -79 -12q-63 0 -100.5 29.5t-37.5 77.5q0 62 57 115l-1 2q-138 15 -205 114
q-54 80 -54 240v377h159z" />
    <glyph glyph-name="uogonek" unicode="&#x173;" horiz-adv-x="605" 
d="M110 38q-47 48 -47 151v303h152v-280q0 -51 19 -71q19 -22 54 -22q54 0 100 44v329h152v-492q-48 -22 -71 -49t-23 -50q0 -40 45 -40q19 0 49 7v-87q-38 -12 -79 -12q-63 0 -100.5 29.5t-37.5 77.5q0 70 67 124v46l-2 1q-67 -58 -150 -58q-81 0 -128 49z" />
    <glyph glyph-name="Wcircumflex" unicode="&#x174;" horiz-adv-x="1053" 
d="M228 0l-221 724h167l92 -311q27 -90 52 -187h2q26 95 55 188l96 310h116l95 -310q33 -107 55 -188h2q25 96 54 190l93 308h160l-223 -724h-168l-78 255q-29 92 -51 173h-2q-22 -79 -52 -176l-78 -252h-166zM351 795l118 164h118l118 -164h-102l-75 91l-75 -91h-102z" />
    <glyph glyph-name="wcircumflex" unicode="&#x175;" horiz-adv-x="828" 
d="M180 0l-168 492h158l50 -155q24 -75 43 -142h2q20 65 46 142l53 155h113l52 -155q25 -76 45 -142h2q16 56 43 142l50 155h147l-168 -492h-142l-44 131q-25 74 -44 141h-2q-18 -62 -45 -140l-45 -132h-146zM243 563l118 164h118l118 -164h-102l-75 91l-75 -91h-102z" />
    <glyph glyph-name="Ycircumflex" unicode="&#x176;" horiz-adv-x="689" 
d="M266 0v327l-279 397h185l88 -131q35 -51 87 -133h2q49 77 87 134l87 130h179l-277 -396v-328h-159zM170 795l118 164h118l118 -164h-102l-75 91l-75 -91h-102z" />
    <glyph glyph-name="ycircumflex" unicode="&#x177;" horiz-adv-x="558" 
d="M232 -220h-155l129 274l-200 438h160l51 -122q33 -80 63 -156h2q31 75 67 159l52 119h151zM107 563l118 164h118l118 -164h-102l-75 91l-75 -91h-102z" />
    <glyph glyph-name="Ydieresis" unicode="&#x178;" horiz-adv-x="689" 
d="M266 0v327l-279 397h185l88 -131q35 -51 87 -133h2q49 77 87 134l87 130h179l-277 -396v-328h-159zM235 803q-31 0 -54 22.5t-23 54.5t23 54.5t54 22.5t54 -22.5t23 -54.5t-23 -54.5t-54 -22.5zM459 803q-31 0 -54 22.5t-23 54.5t23 54.5t54 22.5t54 -22.5t23 -54.5
t-23 -54.5t-54 -22.5z" />
    <glyph glyph-name="Zacute" unicode="&#x179;" horiz-adv-x="650" 
d="M8 2l343 581l-1 2h-310v139h572l1 -2l-343 -581l1 -2h333v-139h-595zM467 959l-116 -164h-104l84 164h136z" />
    <glyph glyph-name="zacute" unicode="&#x17a;" horiz-adv-x="495" 
d="M467 0h-452l-1 2l221 362l-1 2h-198v126h436l1 -2l-221 -362l1 -2h214v-126zM386 727l-116 -164h-104l84 164h136z" />
    <glyph glyph-name="Zdotaccent" unicode="&#x17b;" horiz-adv-x="650" 
d="M8 2l343 581l-1 2h-310v139h572l1 -2l-343 -581l1 -2h333v-139h-595zM329 803q-31 0 -54 22.5t-23 54.5t23 54.5t54 22.5t54 -22.5t23 -54.5t-23 -54.5t-54 -22.5z" />
    <glyph glyph-name="zdotaccent" unicode="&#x17c;" horiz-adv-x="495" 
d="M467 0h-452l-1 2l221 362l-1 2h-198v126h436l1 -2l-221 -362l1 -2h214v-126zM248 571q-32 0 -54.5 22.5t-22.5 54.5t22.5 54.5t54.5 22.5t54.5 -22.5t22.5 -54.5t-22.5 -54.5t-54.5 -22.5z" />
    <glyph glyph-name="Zcaron" unicode="&#x17d;" horiz-adv-x="650" 
d="M8 2l343 581l-1 2h-310v139h572l1 -2l-343 -581l1 -2h333v-139h-595zM506 959l-118 -164h-118l-118 164h102l75 -91l75 91h102z" />
    <glyph glyph-name="zcaron" unicode="&#x17e;" horiz-adv-x="495" 
d="M467 0h-452l-1 2l221 362l-1 2h-198v126h436l1 -2l-221 -362l1 -2h214v-126zM425 727l-118 -164h-118l-118 164h102l75 -91l75 91h102z" />
    <glyph glyph-name="longs" unicode="&#x17f;" horiz-adv-x="318" 
d="M90 0v366h-70v126h70v73q0 115 52 164q47 46 139 46q46 0 84 -14v-123q-34 9 -66 9q-33 0 -45 -18.5t-12 -53.5v-575h-152z" />
    <glyph glyph-name="florin" unicode="&#x192;" horiz-adv-x="536" 
d="M115 366l22 126h80l16 90q17 98 78.5 141t145.5 43q44 0 71 -9v-127q-37 8 -67 8q-33 0 -53 -15t-27 -54l-14 -77h115l-22 -126h-115l-72 -415q-32 -182 -212 -182q-40 0 -72 8v130q41 -9 65 -9q60 0 71 66l70 402h-80z" />
    <glyph glyph-name="AEacute" unicode="&#x1fc;" horiz-adv-x="958" 
d="M-8 0l398 724h520v-139h-278v-142h238v-132h-238v-172h289v-139h-448v152h-235l-82 -152h-164zM369 395l-64 -118h168v116q0 78 2 198h-2zM782 959l-116 -164h-104l84 164h136z" />
    <glyph glyph-name="aeacute" unicode="&#x1fd;" horiz-adv-x="829" 
d="M243 503q113 0 166 -53h2q62 53 150 53q96 0 164 -63.5t68 -181.5q0 -32 -3 -52h-330q26 -99 142 -99q84 0 164 54v-127q-73 -45 -184 -45q-131 0 -203 71q-74 -71 -174 -71q-67 0 -115 33q-59 41 -59 115q0 77 60 118q51 35 136 35q40 0 82 -8v18q0 35 -19 52
q-23 21 -73 21q-71 0 -142 -39v131q74 38 168 38zM558 388q-36 0 -62.5 -22t-36.5 -64h194q-6 39 -32 62.5t-63 23.5zM330 136q-12 29 -16 57q-29 7 -56 7q-80 0 -80 -51q0 -23 18 -35.5t46 -12.5q48 0 88 35zM583 727l-116 -164h-104l84 164h136z" />
    <glyph glyph-name="Oslashacute" unicode="&#x1fe;" horiz-adv-x="824" 
d="M193 362q0 -84 47 -145l286 342q-53 32 -114 32q-93 0 -156 -66.5t-63 -162.5zM34 362q0 158 108.5 265.5t269.5 107.5q117 0 211 -61l59 71l60 -50l-58 -70q106 -104 106 -263q0 -158 -108.5 -265.5t-269.5 -107.5q-117 0 -211 61l-59 -71l-60 50l58 70
q-106 104 -106 263zM631 362q0 84 -47 145l-286 -342q53 -32 114 -32q93 0 156 66.5t63 162.5zM545 959l-116 -164h-104l84 164h136z" />
    <glyph glyph-name="oslashacute" unicode="&#x1ff;" horiz-adv-x="612" 
d="M184 247q0 -39 19 -71l158 182q-25 14 -55 14q-52 0 -87 -36t-35 -89zM32 246q0 109 78 183t196 74q80 0 147 -38l46 53l49 -40l-44 -51q76 -74 76 -181q0 -109 -78 -183t-196 -74q-81 0 -147 38l-46 -53l-49 40l44 51q-76 74 -76 181zM428 245q0 39 -19 71l-158 -182
q25 -14 55 -14q52 0 87 36t35 89zM444 727l-116 -164h-104l84 164h136z" />
    <glyph glyph-name="Scommaaccent" unicode="&#x218;" horiz-adv-x="576" 
d="M61 40v160q55 -35 117.5 -53.5t109.5 -18.5q46 0 73.5 19t27.5 58q0 16 -6 29t-14 21t-26 16t-31 12t-40.5 12t-43.5 13q-89 29 -139.5 75.5t-50.5 132.5q0 101 69.5 160t184.5 59q125 0 221 -52v-157q-54 34 -115 52t-107 18q-93 0 -93 -68q0 -19 6.5 -32t24 -22.5
t30.5 -14.5t45 -14.5t48 -14.5q95 -31 146 -79t51 -136q0 -105 -72.5 -165.5t-190.5 -60.5q-123 0 -225 51zM246 -54h132l-80 -218h-102z" />
    <glyph glyph-name="scommaaccent" unicode="&#x219;" horiz-adv-x="494" 
d="M51 29v133q96 -56 192 -56q67 0 67 38q0 11 -5.5 18t-19 11.5t-26.5 7.5t-36.5 7t-41.5 9q-74 18 -111 51.5t-37 91.5q1 76 61 119.5t154 43.5q107 0 188 -39v-131q-93 53 -185 53q-64 0 -64 -35q0 -10 5.5 -17t18.5 -11.5t25.5 -7t36 -7t40.5 -8.5q76 -19 113.5 -51.5
t37.5 -92.5q-1 -79 -62.5 -123t-158.5 -44q-109 0 -192 40zM205 -54h132l-80 -218h-102z" />
    <glyph glyph-name="uni021A" unicode="&#x21a;" horiz-adv-x="657" 
d="M249 0v585h-234v139h627v-139h-234v-585h-159zM286 -54h132l-80 -218h-102z" />
    <glyph glyph-name="uni021B" unicode="&#x21b;" horiz-adv-x="410" 
d="M143 38q-43 46 -43 147v181h-80v126h80v128l152 26v-154h130v-126h-130v-165q0 -84 57 -84q33 0 73 20v-121q-41 -27 -111 -27q-82 0 -128 49zM185 -54h132l-80 -218h-102z" />
    <glyph glyph-name="dotlessj" unicode="&#x237;" horiz-adv-x="281" 
d="M66 -24v516h152v-506q0 -117 -45 -164q-52 -53 -155 -53q-30 0 -63 5v128q30 -5 50 -5q37 0 49 18.5t12 60.5z" />
    <glyph glyph-name="circumflex" unicode="&#x2c6;" 
d="M89 563l118 164h118l118 -164h-102l-75 91l-75 -91h-102z" />
    <glyph glyph-name="caron" unicode="&#x2c7;" 
d="M443 727l-118 -164h-118l-118 164h102l75 -91l75 91h102z" />
    <glyph glyph-name="breve" unicode="&#x2d8;" 
d="M266 563q-75 0 -118 44.5t-45 119.5h84q6 -87 79 -87t79 87h84q-2 -75 -45 -119.5t-118 -44.5z" />
    <glyph glyph-name="dotaccent" unicode="&#x2d9;" 
d="M266 571q-32 0 -54.5 22.5t-22.5 54.5t22.5 54.5t54.5 22.5t54.5 -22.5t22.5 -54.5t-22.5 -54.5t-54.5 -22.5z" />
    <glyph glyph-name="ring" unicode="&#x2da;" 
d="M266 541q-56 0 -93 35.5t-37 88.5t37 88.5t93 35.5t93 -35.5t37 -88.5t-37 -88.5t-93 -35.5zM266 605q26 0 42 17t16 43t-16 43t-42 17t-42 -17t-16 -43t16 -43t42 -17z" />
    <glyph glyph-name="ogonek" unicode="&#x2db;" 
d="M157 -124q0 38 25.5 78t79.5 72l112 -18q-94 -53 -94 -108q0 -39 45 -39q22 0 49 8v-88q-38 -12 -79 -12q-63 0 -100.5 29.5t-37.5 77.5z" />
    <glyph glyph-name="tilde" unicode="&#x2dc;" 
d="M258 596q-48 23 -69 23q-45 0 -87 -50l-2 1v113q37 37 89 37q34 0 85 -24q48 -23 69 -23q45 0 87 50l2 -1v-113q-37 -37 -89 -37q-34 0 -85 24z" />
    <glyph glyph-name="hungarumlaut" unicode="&#x2dd;" 
d="M274 563l74 164h110l-97 -164h-87zM110 563l74 164h110l-97 -164h-87z" />
    <glyph glyph-name="uni0394" unicode="&#x394;" horiz-adv-x="724" 
d="M34 0v98l249 626h159l249 -626v-98h-657zM208 139h306l-93 245q-40 108 -59 161h-2q-12 -34 -59 -161z" />
    <glyph glyph-name="uni03A9" unicode="&#x3a9;" horiz-adv-x="775" 
d="M387 592q-91 0 -141.5 -58.5t-50.5 -150.5q0 -158 138 -280v-103h-312v139h120l1 2q-107 112 -107 263q0 141 98.5 236t253.5 95t253.5 -95t98.5 -236q0 -151 -107 -263l1 -2h120v-139h-312v103q138 122 138 280q0 92 -50.5 150.5t-141.5 58.5z" />
    <glyph glyph-name="uni03BC" unicode="&#x3bc;" horiz-adv-x="604" 
d="M227 -220h-162v712h152v-280q0 -51 19 -71q19 -22 54 -22q54 0 100 44v329h152v-492h-150v46l-2 1q-27 -26 -64 -42t-71 -16q-26 0 -43 7l-2 -1z" />
    <glyph glyph-name="pi" unicode="&#x3c0;" horiz-adv-x="661" 
d="M105 0q31 140 33 357q-64 -10 -115 -37v126q81 46 226 46h402l-22 -126h-75v-366h-152v366h-112q-2 -224 -33 -366h-152z" />
    <glyph glyph-name="Wgrave" unicode="&#x1e80;" horiz-adv-x="1053" 
d="M228 0l-221 724h167l92 -311q27 -90 52 -187h2q26 95 55 188l96 310h116l95 -310q33 -107 55 -188h2q25 96 54 190l93 308h160l-223 -724h-168l-78 255q-29 92 -51 173h-2q-22 -79 -52 -176l-78 -252h-166zM506 795l-116 164h136l84 -164h-104z" />
    <glyph glyph-name="wgrave" unicode="&#x1e81;" horiz-adv-x="828" 
d="M180 0l-168 492h158l50 -155q24 -75 43 -142h2q20 65 46 142l53 155h113l52 -155q25 -76 45 -142h2q16 56 43 142l50 155h147l-168 -492h-142l-44 131q-25 74 -44 141h-2q-18 -62 -45 -140l-45 -132h-146zM398 563l-116 164h136l84 -164h-104z" />
    <glyph glyph-name="Wacute" unicode="&#x1e82;" horiz-adv-x="1053" 
d="M228 0l-221 724h167l92 -311q27 -90 52 -187h2q26 95 55 188l96 310h116l95 -310q33 -107 55 -188h2q25 96 54 190l93 308h160l-223 -724h-168l-78 255q-29 92 -51 173h-2q-22 -79 -52 -176l-78 -252h-166zM666 959l-116 -164h-104l84 164h136z" />
    <glyph glyph-name="wacute" unicode="&#x1e83;" horiz-adv-x="828" 
d="M180 0l-168 492h158l50 -155q24 -75 43 -142h2q20 65 46 142l53 155h113l52 -155q25 -76 45 -142h2q16 56 43 142l50 155h147l-168 -492h-142l-44 131q-25 74 -44 141h-2q-18 -62 -45 -140l-45 -132h-146zM558 727l-116 -164h-104l84 164h136z" />
    <glyph glyph-name="Wdieresis" unicode="&#x1e84;" horiz-adv-x="1053" 
d="M228 0l-221 724h167l92 -311q27 -90 52 -187h2q26 95 55 188l96 310h116l95 -310q33 -107 55 -188h2q25 96 54 190l93 308h160l-223 -724h-168l-78 255q-29 92 -51 173h-2q-22 -79 -52 -176l-78 -252h-166zM416 803q-32 0 -54.5 22.5t-22.5 54.5t22.5 54.5t54.5 22.5
t54.5 -22.5t22.5 -54.5t-22.5 -54.5t-54.5 -22.5zM640 803q-32 0 -54.5 22.5t-22.5 54.5t22.5 54.5t54.5 22.5t54.5 -22.5t22.5 -54.5t-22.5 -54.5t-54.5 -22.5z" />
    <glyph glyph-name="wdieresis" unicode="&#x1e85;" horiz-adv-x="828" 
d="M180 0l-168 492h158l50 -155q24 -75 43 -142h2q20 65 46 142l53 155h113l52 -155q25 -76 45 -142h2q16 56 43 142l50 155h147l-168 -492h-142l-44 131q-25 74 -44 141h-2q-18 -62 -45 -140l-45 -132h-146zM308 571q-32 0 -54.5 22.5t-22.5 54.5t22.5 54.5t54.5 22.5
t54.5 -22.5t22.5 -54.5t-22.5 -54.5t-54.5 -22.5zM532 571q-32 0 -54.5 22.5t-22.5 54.5t22.5 54.5t54.5 22.5t54.5 -22.5t22.5 -54.5t-22.5 -54.5t-54.5 -22.5z" />
    <glyph glyph-name="Ygrave" unicode="&#x1ef2;" horiz-adv-x="689" 
d="M266 0v327l-279 397h185l88 -131q35 -51 87 -133h2q49 77 87 134l87 130h179l-277 -396v-328h-159zM325 795l-116 164h136l84 -164h-104z" />
    <glyph glyph-name="ygrave" unicode="&#x1ef3;" horiz-adv-x="558" 
d="M232 -220h-155l129 274l-200 438h160l51 -122q33 -80 63 -156h2q31 75 67 159l52 119h151zM262 563l-116 164h136l84 -164h-104z" />
    <glyph glyph-name="endash" unicode="&#x2013;" horiz-adv-x="488" 
d="M47 222v111h394v-111h-394z" />
    <glyph glyph-name="emdash" unicode="&#x2014;" horiz-adv-x="782" 
d="M32 231v93h718v-93h-718z" />
    <glyph glyph-name="quoteleft" unicode="&#x2018;" horiz-adv-x="266" 
d="M34 460l93 282h95l-58 -282h-130z" />
    <glyph glyph-name="quoteright" unicode="&#x2019;" horiz-adv-x="266" 
d="M44 460l58 282h130l-93 -282h-95z" />
    <glyph glyph-name="quotesinglbase" unicode="&#x201a;" horiz-adv-x="266" 
d="M44 -118l58 282h130l-93 -282h-95z" />
    <glyph glyph-name="quotedblleft" unicode="&#x201c;" horiz-adv-x="453" 
d="M34 460l93 282h95l-58 -282h-130zM221 460l93 282h95l-58 -282h-130z" />
    <glyph glyph-name="quotedblright" unicode="&#x201d;" horiz-adv-x="453" 
d="M44 460l58 282h130l-93 -282h-95zM231 460l58 282h130l-93 -282h-95z" />
    <glyph glyph-name="quotedblbase" unicode="&#x201e;" horiz-adv-x="453" 
d="M44 -118l58 282h130l-93 -282h-95zM231 -118l58 282h130l-93 -282h-95z" />
    <glyph glyph-name="dagger" unicode="&#x2020;" horiz-adv-x="609" 
d="M234 -220v599h-176v126h176v219h141v-219h176v-126h-176v-599h-141z" />
    <glyph glyph-name="daggerdbl" unicode="&#x2021;" horiz-adv-x="609" 
d="M58 -1v126h176v254h-176v126h176v219h141v-219h176v-126h-176v-254h176v-126h-176v-219h-141v219h-176z" />
    <glyph glyph-name="bullet" unicode="&#x2022;" horiz-adv-x="376" 
d="M60 297q0 53 37.5 90.5t90.5 37.5t90.5 -37.5t37.5 -90.5t-37.5 -90.5t-90.5 -37.5t-90.5 37.5t-37.5 90.5z" />
    <glyph glyph-name="ellipsis" unicode="&#x2026;" horiz-adv-x="864" 
d="M61 79q0 37 27 63.5t65 26.5t65 -26.5t27 -63.5t-27 -63.5t-65 -26.5t-65 26.5t-27 63.5zM340 79q0 37 27 63.5t65 26.5t65 -26.5t27 -63.5t-27 -63.5t-65 -26.5t-65 26.5t-27 63.5zM619 79q0 37 27 63.5t65 26.5t65 -26.5t27 -63.5t-27 -63.5t-65 -26.5t-65 26.5
t-27 63.5z" />
    <glyph glyph-name="perthousand" unicode="&#x2030;" horiz-adv-x="1349" 
d="M223 361q-82 0 -131 52.5t-49 134.5t49 134.5t131 52.5t131 -52.5t49 -134.5t-49 -134.5t-131 -52.5zM178 0l473 724h102l-473 -724h-102zM223 454q34 0 55.5 27t21.5 67t-21.5 67t-55.5 27t-55.5 -27t-21.5 -67t21.5 -67t55.5 -27zM946 176q0 82 49 134.5t131 52.5
t131 -52.5t49 -134.5t-49 -134.5t-131 -52.5t-131 52.5t-49 134.5zM528 176q0 82 49 134.5t131 52.5t131 -52.5t49 -134.5t-49 -134.5t-131 -52.5t-131 52.5t-49 134.5zM1049 176q0 -40 21.5 -67t55.5 -27t55.5 27t21.5 67t-21.5 67t-55.5 27t-55.5 -27t-21.5 -67zM631 176
q0 -40 21.5 -67t55.5 -27t55.5 27t21.5 67t-21.5 67t-55.5 27t-55.5 -27t-21.5 -67z" />
    <glyph glyph-name="guilsinglleft" unicode="&#x2039;" horiz-adv-x="346" 
d="M185 27l-163 219l163 219h122l-162 -219l162 -219h-122z" />
    <glyph glyph-name="guilsinglright" unicode="&#x203a;" horiz-adv-x="346" 
d="M39 27l162 219l-162 219h122l163 -219l-163 -219h-122z" />
    <glyph glyph-name="fraction" unicode="&#x2044;" horiz-adv-x="399" 
d="M27 -13h-128l473 737h128z" />
    <glyph glyph-name="four.superior" unicode="&#x2074;" horiz-adv-x="421" 
d="M219 422v86h-221l-1 2l230 346h107v-262h58v-86h-58v-86h-115zM150 594h69v51q0 27 2 61l-2 1q-19 -34 -38 -63l-32 -48z" />
    <glyph glyph-name="Euro" unicode="&#x20ac;" horiz-adv-x="611" 
d="M14 230v102h65q-1 10 -1 30q0 22 1 33h-65v102h84q35 110 124.5 174t216.5 64q70 0 127 -22v-146q-67 24 -121 24q-121 0 -175 -94h158v-102h-188q-1 -11 -1 -32t1 -31h188v-102h-159q55 -97 183 -97q61 0 124 26v-145q-53 -25 -138 -25q-130 0 -218.5 65t-122.5 176h-83
z" />
    <glyph glyph-name="litre" unicode="&#x2113;" horiz-adv-x="413" 
d="M51 144l-33 57q56 52 80 77v258q0 102 40.5 158t102.5 56q53 0 84.5 -41.5t31.5 -113.5q0 -157 -159 -328v-66q0 -75 14.5 -105.5t46.5 -30.5q40 0 88 55l37 -48q-60 -86 -148 -86q-69 0 -103 46t-34 123v35q-43 -43 -48 -46zM198 363q85 115 85 232q0 81 -38 81
q-47 0 -47 -132v-181z" />
    <glyph glyph-name="trademark" unicode="&#x2122;" horiz-adv-x="647" 
d="M525 434v98q0 33 2 69l-2 1q-14 -24 -37 -55l-37 -51l-37 51q-23 31 -37 55l-2 -1q2 -36 2 -69v-98h-75v290h72l78 -107l77 107h73v-290h-77zM104 434v220h-81v70h240v-70h-81v-220h-78z" />
    <glyph glyph-name="Omega" unicode="&#x2126;" horiz-adv-x="775" 
d="M387 592q-91 0 -141.5 -58.5t-50.5 -150.5q0 -158 138 -280v-103h-312v139h120l1 2q-107 112 -107 263q0 141 98.5 236t253.5 95t253.5 -95t98.5 -236q0 -151 -107 -263l1 -2h120v-139h-312v103q138 122 138 280q0 92 -50.5 150.5t-141.5 58.5z" />
    <glyph glyph-name="estimated" unicode="&#x212e;" horiz-adv-x="740" 
d="M168 137q0 -41 35.5 -71t81 -42.5t91.5 -12.5q67 0 131.5 30.5t106.5 87.5l33 -7q-102 -139 -274 -139q-146 0 -241.5 93t-95.5 229t95.5 229.5t240.5 93.5q85 0 157.5 -32.5t122 -101.5t53.5 -162q1 -23 -4 -27.5t-28 -4.5h-473q-25 0 -28.5 -4t-3.5 -28v-131zM200 328
h342q25 0 28.5 4t3.5 28v125q0 48 -59.5 81.5t-143.5 33.5t-143.5 -33.5t-59.5 -81.5v-125q0 -24 3.5 -28t28.5 -4z" />
    <glyph glyph-name="partialdiff" unicode="&#x2202;" horiz-adv-x="580" 
d="M19 225q0 103 67 173.5t171 70.5q79 0 144 -42l1 1q-20 224 -149 224q-66 0 -136 -42v127q72 46 164 46q72 0 126 -30.5t86 -85t47.5 -124t15.5 -153.5q0 -187 -75 -294t-216 -107q-116 0 -181 68t-65 168zM172 227q0 -48 28 -78.5t73 -30.5q106 0 127 177
q-55 49 -119 49q-51 0 -80 -34t-29 -83z" />
    <glyph glyph-name="Delta" unicode="&#x2206;" horiz-adv-x="724" 
d="M34 0v98l249 626h159l249 -626v-98h-657zM208 139h306l-93 245q-40 108 -59 161h-2q-12 -34 -59 -161z" />
    <glyph glyph-name="product" unicode="&#x220f;" horiz-adv-x="791" 
d="M122 -116v701h-100v139h747v-139h-100v-701h-158v701h-231v-701h-158z" />
    <glyph glyph-name="summation" unicode="&#x2211;" horiz-adv-x="622" 
d="M49 -13l203 341l-193 293v103h498v-139h-303l165 -252l-185 -310h338v-139h-523v103z" />
    <glyph glyph-name="minus" unicode="&#x2212;" horiz-adv-x="600" 
d="M54 307v110h492v-110h-492z" />
    <glyph glyph-name="radical" unicode="&#x221a;" horiz-adv-x="681" 
d="M355 108h3q27 85 61 181l208 589h117l-358 -994h-55l-203 492l-94 -37l-36 90l199 80l89 -221q36 -88 69 -180z" />
    <glyph glyph-name="infinity" unicode="&#x221e;" horiz-adv-x="753" 
d="M209 63q-80 0 -130.5 54.5t-50.5 135.5q0 79 48.5 134t131.5 55q99 0 170 -97h2q66 97 163 97q80 0 130.5 -54.5t50.5 -135.5q0 -79 -48.5 -134t-131.5 -55q-99 0 -170 97h-2q-66 -97 -163 -97zM435 257q21 -41 45 -63.5t59 -22.5t54 22.5t19 58.5t-19 59t-54 23
q-57 0 -104 -77zM213 171q57 0 104 77q-21 41 -45 63.5t-59 22.5t-54 -22.5t-19 -58.5t19 -59t54 -23z" />
    <glyph glyph-name="integral" unicode="&#x222b;" horiz-adv-x="353" 
d="M18 -49q32 -6 57 -6q35 0 51.5 17t16.5 56q0 27 -10 90l-63 376q-15 90 -15 151q0 101 58 146t145 45q38 0 72 -9v-125q-33 6 -57 6q-35 0 -51.5 -17t-16.5 -56q0 -27 10 -90l63 -376q15 -90 15 -151q0 -102 -58 -146.5t-150 -44.5q-41 0 -67 8v126z" />
    <glyph glyph-name="approxequal" unicode="&#x2248;" horiz-adv-x="600" 
d="M86 381l-28 86q21 36 56 57.5t73 21.5q42 0 117 -26.5t112 -26.5q62 0 98 56l28 -86q-21 -36 -56 -57.5t-73 -21.5q-42 0 -117 26.5t-112 26.5q-62 0 -98 -56zM86 175l-28 86q21 36 56 57.5t73 21.5q42 0 117 -26.5t112 -26.5q62 0 98 56l28 -86q-21 -36 -56 -57.5
t-73 -21.5q-42 0 -117 26.5t-112 26.5q-62 0 -98 -56z" />
    <glyph glyph-name="notequal" unicode="&#x2260;" horiz-adv-x="600" 
d="M54 417v109h328l97 129l52 -39l-68 -90h83v-109h-164l-83 -110h247v-109h-328l-97 -129l-52 39l68 90h-83v109h164l83 110h-247z" />
    <glyph glyph-name="lessequal" unicode="&#x2264;" horiz-adv-x="716" 
d="M82 373v80l552 212v-116l-351 -135v-2l351 -135v-116zM82 0v94h552v-94h-552z" />
    <glyph glyph-name="greaterequal" unicode="&#x2265;" horiz-adv-x="716" 
d="M82 161v116l351 135v2l-351 135v116l552 -212v-80zM82 0v94h552v-94h-552z" />
    <glyph glyph-name="lozenge" unicode="&#x25ca;" horiz-adv-x="551" 
d="M225 -19l-185 378l185 379h101l185 -378l-185 -379h-101zM275 100h2l123 260l-124 259h-2l-123 -260z" />
    <glyph glyph-name="commaaccent" unicode="&#xf6c3;" 
d="M224 -54h132l-80 -218h-102z" />
    <glyph glyph-name="apple" unicode="&#xf8ff;" horiz-adv-x="994" 
d="M478 674q-2 12 -2 27q0 63 51 120t120 66l15 1q2 -14 2 -25q0 -74 -56 -132q-56 -57 -130 -57zM203 96q-48 64 -77 148t-29 169q0 124 67 197q68 74 177 74q39 0 94 -21q42 -16 56 -16q12 0 79 23q42 14 88 14q116 0 187 -87q-101 -74 -101 -176q0 -118 125 -183
q-35 -99 -98 -171t-116 -72q-21 0 -82 22q-46 17 -77 17q-30 0 -65 -13q-68 -26 -87 -26q-66 0 -141 101z" />
    <glyph glyph-name="ff" unicode="&#xfb00;" horiz-adv-x="721" 
d="M439 0v366h-197v-366h-152v366h-70v126h70v73q0 115 52 164q47 46 139 46q46 0 84 -14v-123q-34 9 -66 9q-33 0 -45 -18.5t-12 -53.5v-83h197v73q0 115 52 164q47 46 139 46q46 0 84 -14v-123q-34 9 -66 9q-33 0 -45 -18.5t-12 -53.5v-83h114v-126h-114v-366h-152z" />
    <glyph glyph-name="commaaccent.alt" 
d="M175 556l80 218h102l-50 -218h-132z" />
    <glyph glyph-name="hyphen.cap" horiz-adv-x="339" 
d="M46 299v124h247v-124h-247z" />
    <glyph glyph-name="exclamdown.cap" horiz-adv-x="292" 
d="M197 483l37 -483h-176l37 483h102zM234 648q0 -36 -26 -61.5t-62 -25.5t-62 25.5t-26 61.5t26 61.5t62 25.5t62 -25.5t26 -61.5z" />
    <glyph glyph-name="questiondown.cap" horiz-adv-x="514" 
d="M387 501l24 -178q-203 0 -203 -102q0 -38 26.5 -63t71.5 -25q64 0 138 48l19 -142q-72 -50 -170 -50q-105 0 -175 63t-70 157q0 86 59.5 146.5t138.5 70.5v75h141zM391 648q0 -36 -26 -61.5t-62 -25.5t-62 25.5t-26 61.5t26 61.5t62 25.5t62 -25.5t26 -61.5z" />
    <glyph glyph-name="guilsinglleft.cap" horiz-adv-x="346" 
d="M185 143l-163 219l163 219h122l-162 -219l162 -219h-122z" />
    <glyph glyph-name="guilsinglright.cap" horiz-adv-x="346" 
d="M39 143l162 219l-162 219h122l163 -219l-163 -219h-122z" />
    <glyph glyph-name="guillemotleft.cap" horiz-adv-x="577" 
d="M185 143l-163 219l163 219h122l-162 -219l162 -219h-122zM416 143l-163 219l163 219h122l-162 -219l162 -219h-122z" />
    <glyph glyph-name="guillemotright.cap" horiz-adv-x="577" 
d="M39 143l162 219l-162 219h122l163 -219l-163 -219h-122zM270 143l162 219l-162 219h122l163 -219l-163 -219h-122z" />
    <glyph glyph-name="endash.cap" horiz-adv-x="488" 
d="M47 306v111h394v-111h-394z" />
    <glyph glyph-name="emdash.cap" horiz-adv-x="782" 
d="M32 315v93h718v-93h-718z" />
    <glyph glyph-name="parenleft.cap" horiz-adv-x="373" 
d="M68 362q0 293 147 478h141q-68 -88 -109.5 -211t-41.5 -267t41.5 -267t109.5 -211h-141q-147 185 -147 478z" />
    <glyph glyph-name="parenright.cap" horiz-adv-x="373" 
d="M17 -116q68 88 109.5 211t41.5 267t-41.5 267t-109.5 211h141q147 -185 147 -478t-147 -478h-141z" />
    <glyph glyph-name="bracketleft.cap" horiz-adv-x="362" 
d="M215 -7h105v-109h-245v956h245v-109h-105v-738z" />
    <glyph glyph-name="bracketright.cap" horiz-adv-x="362" 
d="M42 -7h105v738h-105v109h245v-956h-245v109z" />
    <glyph glyph-name="braceleft.cap" horiz-adv-x="374" 
d="M114 36v200q0 39 -14 55t-52 16h-29v110h29q38 0 52 16t14 55v200q0 75 43.5 119t129.5 44q38 0 68 -6v-107q-15 4 -38 4q-33 0 -48 -16.5t-15 -55.5v-176q0 -57 -15.5 -88t-53.5 -43v-2q38 -12 53.5 -43t15.5 -88v-176q0 -39 15 -55.5t48 -16.5q23 0 38 4v-107
q-30 -6 -68 -6q-86 0 -129.5 44t-43.5 119z" />
    <glyph glyph-name="braceright.cap" horiz-adv-x="374" 
d="M120 54v176q0 57 15.5 88t53.5 43v2q-38 12 -53.5 43t-15.5 88v176q0 39 -15 55.5t-48 16.5q-23 0 -38 -4v107q30 6 68 6q86 0 129.5 -44t43.5 -119v-200q0 -39 14 -55t52 -16h29v-110h-29q-38 0 -52 -16t-14 -55v-200q0 -75 -43.5 -119t-129.5 -44q-38 0 -68 6v107
q15 -4 38 -4q33 0 48 16.5t15 55.5z" />
    <glyph glyph-name="i.TRK" horiz-adv-x="277" 
d="M63 0v492h152v-492h-152z" />
    <glyph glyph-name="tilde.cap" 
d="M258 828q-48 23 -69 23q-45 0 -87 -50l-2 1v113q37 37 89 37q34 0 85 -24q48 -23 69 -23q45 0 87 50l2 -1v-113q-37 -37 -89 -37q-34 0 -85 24z" />
    <glyph glyph-name="dieresis.cap" 
d="M154 803q-32 0 -54.5 22.5t-22.5 54.5t22.5 54.5t54.5 22.5t54.5 -22.5t22.5 -54.5t-22.5 -54.5t-54.5 -22.5zM378 803q-32 0 -54.5 22.5t-22.5 54.5t22.5 54.5t54.5 22.5t54.5 -22.5t22.5 -54.5t-22.5 -54.5t-54.5 -22.5z" />
    <glyph glyph-name="macron.cap" 
d="M113 827v100h306v-100h-306z" />
    <glyph glyph-name="breve.cap" 
d="M266 795q-75 0 -118 44.5t-45 119.5h84q6 -87 79 -87t79 87h84q-2 -75 -45 -119.5t-118 -44.5z" />
    <glyph glyph-name="ring.cap" 
d="M266 773q-56 0 -93 35.5t-37 88.5t37 88.5t93 35.5t93 -35.5t37 -88.5t-37 -88.5t-93 -35.5zM266 837q26 0 42 17t16 43t-16 43t-42 17t-42 -17t-16 -43t16 -43t42 -17z" />
    <glyph glyph-name="hungarumlaut.cap" 
d="M274 795l74 164h110l-97 -164h-87zM110 795l74 164h110l-97 -164h-87z" />
    <glyph glyph-name="dotaccent.cap" 
d="M266 803q-32 0 -54.5 22.5t-22.5 54.5t22.5 54.5t54.5 22.5t54.5 -22.5t22.5 -54.5t-22.5 -54.5t-54.5 -22.5z" />
    <glyph glyph-name="grave.cap" 
d="M244 795l-116 164h136l84 -164h-104z" />
    <glyph glyph-name="acute.cap" 
d="M404 959l-116 -164h-104l84 164h136z" />
    <glyph glyph-name="circumflex.cap" 
d="M89 795l118 164h118l118 -164h-102l-75 91l-75 -91h-102z" />
    <glyph glyph-name="caron.cap" 
d="M443 959l-118 -164h-118l-118 164h102l75 -91l75 91h102z" />
    <glyph glyph-name="a.alt" horiz-adv-x="607" 
d="M36 236q0 116 75 191.5t188 75.5q69 0 129 -31l116 20v-492h-149v27l-2 1q-49 -39 -124 -39q-97 0 -165 68.5t-68 178.5zM189 244q0 -57 32 -94t87 -37q44 0 84 25v220q-42 19 -80 19q-58 0 -90.5 -37.5t-32.5 -95.5z" />
    <glyph glyph-name="agrave.alt" horiz-adv-x="607" 
d="M36 236q0 116 75 191.5t188 75.5q69 0 129 -31l116 20v-492h-149v27l-2 1q-49 -39 -124 -39q-97 0 -165 68.5t-68 178.5zM189 244q0 -57 32 -94t87 -37q44 0 84 25v220q-42 19 -80 19q-58 0 -90.5 -37.5t-32.5 -95.5zM283 563l-116 164h136l84 -164h-104z" />
    <glyph glyph-name="aacute.alt" horiz-adv-x="607" 
d="M36 236q0 116 75 191.5t188 75.5q69 0 129 -31l116 20v-492h-149v27l-2 1q-49 -39 -124 -39q-97 0 -165 68.5t-68 178.5zM189 244q0 -57 32 -94t87 -37q44 0 84 25v220q-42 19 -80 19q-58 0 -90.5 -37.5t-32.5 -95.5zM443 727l-116 -164h-104l84 164h136z" />
    <glyph glyph-name="acircumflex.alt" horiz-adv-x="607" 
d="M36 236q0 116 75 191.5t188 75.5q69 0 129 -31l116 20v-492h-149v27l-2 1q-49 -39 -124 -39q-97 0 -165 68.5t-68 178.5zM189 244q0 -57 32 -94t87 -37q44 0 84 25v220q-42 19 -80 19q-58 0 -90.5 -37.5t-32.5 -95.5zM128 563l118 164h118l118 -164h-102l-75 91l-75 -91
h-102z" />
    <glyph glyph-name="atilde.alt" horiz-adv-x="607" 
d="M36 236q0 116 75 191.5t188 75.5q69 0 129 -31l116 20v-492h-149v27l-2 1q-49 -39 -124 -39q-97 0 -165 68.5t-68 178.5zM189 244q0 -57 32 -94t87 -37q44 0 84 25v220q-42 19 -80 19q-58 0 -90.5 -37.5t-32.5 -95.5zM297 596q-48 23 -69 23q-45 0 -87 -50l-2 1v113
q37 37 89 37q34 0 85 -24q48 -23 69 -23q45 0 87 50l2 -1v-113q-37 -37 -89 -37q-34 0 -85 24z" />
    <glyph glyph-name="adieresis.alt" horiz-adv-x="607" 
d="M36 236q0 116 75 191.5t188 75.5q69 0 129 -31l116 20v-492h-149v27l-2 1q-49 -39 -124 -39q-97 0 -165 68.5t-68 178.5zM189 244q0 -57 32 -94t87 -37q44 0 84 25v220q-42 19 -80 19q-58 0 -90.5 -37.5t-32.5 -95.5zM193 571q-31 0 -54 22.5t-23 54.5t23 54.5t54 22.5
t54 -22.5t23 -54.5t-23 -54.5t-54 -22.5zM417 571q-31 0 -54 22.5t-23 54.5t23 54.5t54 22.5t54 -22.5t23 -54.5t-23 -54.5t-54 -22.5z" />
    <glyph glyph-name="amacron.alt" horiz-adv-x="607" 
d="M36 236q0 116 75 191.5t188 75.5q69 0 129 -31l116 20v-492h-149v27l-2 1q-49 -39 -124 -39q-97 0 -165 68.5t-68 178.5zM189 244q0 -57 32 -94t87 -37q44 0 84 25v220q-42 19 -80 19q-58 0 -90.5 -37.5t-32.5 -95.5zM152 595v100h306v-100h-306z" />
    <glyph glyph-name="abreve.alt" horiz-adv-x="607" 
d="M36 236q0 116 75 191.5t188 75.5q69 0 129 -31l116 20v-492h-149v27l-2 1q-49 -39 -124 -39q-97 0 -165 68.5t-68 178.5zM189 244q0 -57 32 -94t87 -37q44 0 84 25v220q-42 19 -80 19q-58 0 -90.5 -37.5t-32.5 -95.5zM305 563q-75 0 -118 44.5t-45 119.5h84q6 -87 79 -87
t79 87h84q-2 -75 -45 -119.5t-118 -44.5z" />
    <glyph glyph-name="aring.alt" horiz-adv-x="607" 
d="M36 236q0 116 75 191.5t188 75.5q69 0 129 -31l116 20v-492h-149v27l-2 1q-49 -39 -124 -39q-97 0 -165 68.5t-68 178.5zM189 244q0 -57 32 -94t87 -37q44 0 84 25v220q-42 19 -80 19q-58 0 -90.5 -37.5t-32.5 -95.5zM305 541q-56 0 -93 35.5t-37 88.5t37 88.5t93 35.5
t93 -35.5t37 -88.5t-37 -88.5t-93 -35.5zM305 605q26 0 42 17t16 43t-16 43t-42 17t-42 -17t-16 -43t16 -43t42 -17z" />
    <glyph glyph-name="ae.alt" horiz-adv-x="912" 
d="M305 113q63 0 98 39q-15 41 -15 91v115q-40 19 -79 19q-56 0 -88 -37.5t-32 -94.5t31.5 -94.5t84.5 -37.5zM665 -11q-129 0 -208 77q-81 -77 -189 -77q-97 0 -164.5 68.5t-67.5 178.5q0 116 74.5 191.5t185.5 75.5q62 0 116 -26l118 21v-34l2 -1q46 40 113 40
q95 0 163 -64t68 -181q0 -32 -3 -52h-330q26 -99 142 -99q84 0 164 54v-127q-73 -45 -184 -45zM641 387q-36 0 -62.5 -21.5t-36.5 -63.5h194q-6 39 -32 62t-63 23z" />
    <glyph glyph-name="aeacute.alt" horiz-adv-x="912" 
d="M631 727l-116 -164h-104l84 164h136zM305 113q63 0 98 39q-15 41 -15 91v115q-40 19 -79 19q-56 0 -88 -37.5t-32 -94.5t31.5 -94.5t84.5 -37.5zM665 -11q-129 0 -208 77q-81 -77 -189 -77q-97 0 -164.5 68.5t-67.5 178.5q0 116 74.5 191.5t185.5 75.5q62 0 116 -26
l118 21v-34l2 -1q46 40 113 40q95 0 163 -64t68 -181q0 -32 -3 -52h-330q26 -99 142 -99q84 0 164 54v-127q-73 -45 -184 -45zM641 387q-36 0 -62.5 -21.5t-36.5 -63.5h194q-6 39 -32 62t-63 23z" />
    <glyph glyph-name="aogonek.alt" horiz-adv-x="607" 
d="M36 236q0 116 75 191.5t188 75.5q69 0 129 -31l116 20v-492q-50 -21 -72 -48t-22 -51q0 -40 45 -40q19 0 49 7v-87q-38 -12 -79 -12q-63 0 -100.5 29.5t-37.5 77.5q0 70 68 124v27l-2 1q-49 -39 -124 -39q-97 0 -165 68.5t-68 178.5zM189 244q0 -57 32 -94t87 -37
q44 0 84 25v220q-42 19 -80 19q-58 0 -90.5 -37.5t-32.5 -95.5z" />
    <glyph glyph-name="ordfeminine.alt" horiz-adv-x="396" 
d="M22 561q0 76 49 125t122 49q44 0 82 -20l83 15v-322h-106v16l-2 1q-34 -24 -79 -24q-62 0 -105.5 44.5t-43.5 115.5zM131 567q0 -34 19 -56.5t52 -22.5q22 0 47 14v134q-24 10 -45 10q-35 0 -54 -22.5t-19 -56.5z" />
    <glyph glyph-name="periodcentered.cap" horiz-adv-x="306" 
d="M61 362q0 37 27 63.5t65 26.5t65 -26.5t27 -63.5t-27 -63.5t-65 -26.5t-65 26.5t-27 63.5z" />
    <glyph glyph-name="at.cap" horiz-adv-x="795" 
d="M23 362q0 160 107 266.5t268 106.5t267.5 -106t106.5 -259q0 -95 -43.5 -147.5t-119.5 -52.5q-81 0 -122 51h-2q-49 -52 -123 -52q-70 0 -115 49t-45 125q0 85 53.5 148.5t140.5 63.5q54 0 96 -29l83 13l-18 -199q-1 -11 -1 -24q0 -33 15.5 -55.5t47.5 -22.5
q36 0 59.5 31.5t23.5 96.5q0 124 -83 214t-220 90t-221.5 -90.5t-84.5 -218.5q0 -127 83.5 -217t219.5 -90q118 0 205 70l36 -57q-100 -78 -238 -78q-162 0 -269 106.5t-107 266.5zM379 252q50 0 79 40q-2 17 1 53l9 100q-31 27 -68 27q-45 0 -71 -39.5t-26 -88.5
q0 -41 20 -66.5t56 -25.5z" />
    </font>
</defs>
</svg>
