<?xml version="1.0" standalone="no"?>
<!DOCTYPE svg PUBLIC "-//W3C//DTD SVG 1.1//EN" "http://www.w3.org/Graphics/SVG/1.1/DTD/svg11.dtd" >
<svg xmlns="http://www.w3.org/2000/svg" xmlns:xlink="http://www.w3.org/1999/xlink" version="1.1">
<metadata>
Created by FontForge 20170731 at Fri Jan  4 23:26:01 2013
 By Aleksey,,,
Copyright (c) 2012 by Rui Abreu, Portugal. All rights reserved.
</metadata>
<defs>
<font id="AzoSans-Light" horiz-adv-x="592" >
  <font-face 
    font-family="Azo Sans Lt"
    font-weight="300"
    font-stretch="normal"
    units-per-em="1000"
    panose-1="2 0 0 0 0 0 0 0 0 0"
    ascent="772"
    descent="-228"
    x-height="492"
    cap-height="724"
    bbox="-93 -272 1291 1008"
    underline-thickness="50"
    underline-position="-220"
    unicode-range="U+000D-FB02"
  />
<missing-glyph horiz-adv-x="646" 
d="M151 604l131 131l213 -212l-101 -101l101 -100l-101 -101l101 -100l-132 -132l-212 213l100 100l-100 101l100 100z" />
    <glyph glyph-name="fi" unicode="fi" horiz-adv-x="561" 
d="M109 0v440h-84v52h84v107q0 98 42 139q38 37 106 37q35 0 64 -9v-53q-27 8 -62 8q-52 0 -71.5 -29t-19.5 -85v-115h137v-52h-137v-440h-59zM490 663q0 -19 -13.5 -32t-32.5 -13t-32 13.5t-13 32.5t13.5 32t32.5 13t32 -13.5t13 -32.5zM415 0v492h59v-492h-59z" />
    <glyph glyph-name="fl" unicode="fl" horiz-adv-x="561" 
d="M109 0v440h-84v52h84v107q0 98 42 139q38 37 106 37q35 0 64 -9v-53q-27 8 -62 8q-52 0 -71.5 -29t-19.5 -85v-115h137v-52h-137v-440h-59zM415 0v764h59v-764h-59z" />
    <glyph glyph-name=".notdef" horiz-adv-x="646" 
d="M151 604l131 131l213 -212l-101 -101l101 -100l-101 -101l101 -100l-132 -132l-212 213l100 100l-100 101l100 100z" />
    <glyph glyph-name=".null" horiz-adv-x="1" 
 />
    <glyph glyph-name=".null" horiz-adv-x="1" 
 />
    <glyph glyph-name="nonmarkingreturn" horiz-adv-x="333" 
 />
    <glyph glyph-name="CR" unicode="&#xd;" horiz-adv-x="346" 
 />
    <glyph glyph-name="space" unicode=" " horiz-adv-x="245" 
 />
    <glyph glyph-name="exclam" unicode="!" horiz-adv-x="314" 
d="M138 210l-14 514h66l-14 -514h-38zM108 38q0 20 14.5 34.5t34.5 14.5t34.5 -14.5t14.5 -34.5t-14.5 -34.5t-34.5 -14.5t-34.5 14.5t-14.5 34.5z" />
    <glyph glyph-name="quotedbl" unicode="&#x22;" horiz-adv-x="342" 
d="M75 481l-10 261h58l-10 -261h-38zM229 481l-10 261h58l-10 -261h-38z" />
    <glyph glyph-name="numbersign" unicode="#" horiz-adv-x="609" 
d="M81 0l68 233h-133l12 43h133l50 172h-133l12 43h133l67 233h44l-67 -233h149l68 233h44l-67 -233h132l-12 -43h-132l-50 -172h132l-12 -43h-132l-67 -233h-45l68 233h-150l-67 -233h-45zM205 276h149l51 172h-150z" />
    <glyph glyph-name="dollar" unicode="$" horiz-adv-x="562" 
d="M253 -76v124q-98 6 -169 51v66q88 -63 200 -63q70 0 111 29.5t41 85.5q0 31 -13.5 53t-38 34.5t-51 20.5t-59.5 15q-3 0 -4 0.5t-3 1t-4 0.5q-41 9 -69.5 19t-59 28t-46.5 48.5t-16 72.5q0 73 49.5 116.5t131.5 49.5v124h49v-124q93 -6 166 -49v-65q-86 60 -192 60
q-66 0 -104.5 -28t-38.5 -81q0 -29 12 -49.5t36.5 -32.5t46.5 -19t58 -15q9 -2 14 -3q33 -7 57 -14.5t52.5 -21.5t45.5 -31t29 -44.5t12 -62.5q0 -78 -53 -123t-141 -50v-123h-49z" />
    <glyph glyph-name="percent" unicode="%" horiz-adv-x="932" 
d="M58 548q0 80 49 133.5t122 53.5t122 -53.5t49 -133.5t-49 -133.5t-122 -53.5t-122 53.5t-49 133.5zM206 0l471 724h49l-471 -724h-49zM102 548q0 -61 37 -102.5t90 -41.5t90 41.5t37 102.5t-37 102.5t-90 41.5t-90 -41.5t-37 -102.5zM874 176q0 -80 -49 -133.5
t-122 -53.5t-122 53.5t-49 133.5t49 133.5t122 53.5t122 -53.5t49 -133.5zM830 176q0 61 -37 102.5t-90 41.5t-90 -41.5t-37 -102.5t37 -102.5t90 -41.5t90 41.5t37 102.5z" />
    <glyph glyph-name="ampersand" unicode="&#x26;" horiz-adv-x="696" 
d="M565 434h59l-81 -274l159 -158l-1 -2h-73l-107 107q-29 -54 -85.5 -86t-137.5 -32q-109 0 -170.5 56.5t-61.5 140.5q0 110 118 182l46 28l-32 32q-74 74 -74 149q0 71 48.5 114.5t121.5 43.5q74 0 122 -44.5t48 -114.5q0 -90 -99 -155l-51 -33l185 -184zM182 576
q0 -53 57 -113l38 -38l55 37q73 49 73 113q0 48 -32 77t-80 29q-49 0 -80 -29.5t-31 -75.5zM301 43q128 0 177 106l-211 210l-51 -32q-91 -57 -91 -139q0 -62 47 -103.5t129 -41.5z" />
    <glyph glyph-name="quotesingle" unicode="'" horiz-adv-x="188" 
d="M75 481l-10 261h58l-10 -261h-38z" />
    <glyph glyph-name="parenleft" unicode="(" horiz-adv-x="325" 
d="M82 265q0 150 40.5 271.5t104.5 206.5h59q-67 -88 -108.5 -211t-41.5 -267t41.5 -267t108.5 -211h-59q-64 85 -104.5 206.5t-40.5 271.5z" />
    <glyph glyph-name="parenright" unicode=")" horiz-adv-x="325" 
d="M243 265q0 -150 -40.5 -271.5t-104.5 -206.5h-59q67 88 108.5 211t41.5 267t-41.5 267t-108.5 211h59q64 -85 104.5 -206.5t40.5 -271.5z" />
    <glyph glyph-name="asterisk" unicode="*" horiz-adv-x="461" 
d="M215 570l-8 159h47l-8 -159h-31zM271 530l-9 29l150 58l14 -46zM190 530l-155 41l14 46l150 -58zM329 358l-88 135l25 17l101 -125zM132 358l-38 27l101 125l25 -17z" />
    <glyph glyph-name="plus" unicode="+" horiz-adv-x="583" 
d="M267 116v222h-214v48h214v222h49v-222h214v-48h-214v-222h-49z" />
    <glyph glyph-name="comma" unicode="," horiz-adv-x="299" 
d="M69 -147l58 273h61l-75 -273h-44z" />
    <glyph glyph-name="hyphen" unicode="-" horiz-adv-x="358" 
d="M63 251v52h233v-52h-233z" />
    <glyph glyph-name="period" unicode="." horiz-adv-x="300" 
d="M100 39q0 21 14.5 35.5t35.5 14.5t35.5 -14.5t14.5 -35.5t-14.5 -35.5t-35.5 -14.5t-35.5 14.5t-14.5 35.5z" />
    <glyph glyph-name="slash" unicode="/" horiz-adv-x="437" 
d="M25 -38l337 800h50l-337 -800h-50z" />
    <glyph glyph-name="zero" unicode="0" horiz-adv-x="606" 
d="M67 362q0 188 63 281q62 92 173 92t173 -92q63 -93 63 -281t-63 -281q-62 -92 -173 -92t-173 92q-63 93 -63 281zM128 362q0 -174 52 -249q46 -67 123 -67t123 67q52 75 52 249t-52 249q-46 67 -123 67t-123 -67q-52 -75 -52 -249z" />
    <glyph glyph-name="one" unicode="1" horiz-adv-x="501" 
d="M257 0v651l-176 -70v59l237 95v-735h-61z" />
    <glyph glyph-name="two" unicode="2" horiz-adv-x="555" 
d="M31 2l245 286q65 75 96 130.5t31 111.5q0 71 -45.5 109.5t-116.5 38.5q-86 0 -156 -56v64q67 49 160 49q94 0 156.5 -53.5t62.5 -149.5q0 -67 -34.5 -131t-104.5 -146l-170 -197l1 -2h338v-56h-462z" />
    <glyph glyph-name="three" unicode="3" horiz-adv-x="542" 
d="M55 59v74q83 -87 198 -87q74 0 121 39.5t47 107.5q0 64 -44.5 104t-126.5 40h-67v54h62q73 0 116 40t43 104q0 66 -44.5 104.5t-114.5 38.5q-76 0 -141 -45v63q64 39 145 39q94 0 155 -54.5t61 -141.5q0 -59 -30 -105t-86 -64v-2q67 -17 100 -64.5t33 -110.5
q0 -91 -64 -147.5t-166 -56.5q-60 0 -112 19.5t-85 50.5z" />
    <glyph glyph-name="four" unicode="4" horiz-adv-x="628" 
d="M26 191l-1 2l375 531h57v-479h144v-54h-144v-191h-61v191h-370zM126 247l1 -2h269v216q0 113 1 169l-2 1q-53 -77 -106 -153z" />
    <glyph glyph-name="five" unicode="5" horiz-adv-x="536" 
d="M55 31l4 64q80 -49 168 -49q87 0 140 42t53 112q0 60 -41 98.5t-94.5 52t-117.5 13.5q-42 0 -81 -6l28 366h346l-5 -56h-287l-19 -251q11 1 31 1q56 0 106.5 -11t95.5 -35t72 -67.5t27 -101.5q0 -96 -69.5 -155t-184.5 -59q-98 0 -172 42z" />
    <glyph glyph-name="six" unicode="6" horiz-adv-x="582" 
d="M298 724h70l-173 -293q-25 -41 -35 -61l2 -1q56 53 143 53q93 0 155.5 -60.5t62.5 -152.5q0 -95 -66.5 -157.5t-168.5 -62.5q-103 0 -168.5 65.5t-65.5 164.5q0 50 18 99.5t62 124.5zM116 211q0 -66 48.5 -116.5t124.5 -50.5q72 0 122.5 45t50.5 118q0 69 -48 115.5
t-121 46.5q-74 0 -125.5 -45.5t-51.5 -112.5z" />
    <glyph glyph-name="seven" unicode="7" horiz-adv-x="549" 
d="M133 0l285 668h-366v56h452l1 -2l-308 -722h-64z" />
    <glyph glyph-name="eight" unicode="8" horiz-adv-x="590" 
d="M295 681q-67 0 -111 -39t-44 -99t44.5 -98.5t110.5 -38.5t110.5 38.5t44.5 98.5t-44 99t-111 39zM295 355q-73 0 -122.5 -44.5t-49.5 -113.5t49.5 -111.5t122.5 -42.5t122.5 42.5t49.5 111.5t-49.5 113.5t-122.5 44.5zM295 -11q-105 0 -169 58.5t-64 150.5
q0 70 37.5 118.5t94.5 64.5v2q-53 18 -83 60.5t-30 100.5q0 84 59.5 137.5t154.5 53.5t154.5 -53.5t59.5 -137.5q0 -58 -30 -100.5t-83 -60.5v-2q57 -16 94.5 -64.5t37.5 -118.5q0 -92 -64 -150.5t-169 -58.5z" />
    <glyph glyph-name="nine" unicode="9" horiz-adv-x="568" 
d="M248 0h-71l200 313q13 21 17 28l-2 1q-50 -39 -127 -39q-91 0 -154 60.5t-63 151.5q0 95 67.5 157.5t167.5 62.5q99 0 165 -63t66 -162q0 -92 -82 -220zM279 356q75 0 124 47.5t49 112.5t-49 114.5t-122 49.5q-70 0 -121 -45t-51 -118q0 -69 47.5 -115t122.5 -46z" />
    <glyph glyph-name="colon" unicode=":" horiz-adv-x="300" 
d="M100 453q0 21 14.5 35.5t35.5 14.5t35.5 -14.5t14.5 -35.5t-14.5 -35.5t-35.5 -14.5t-35.5 14.5t-14.5 35.5zM100 39q0 21 14.5 35.5t35.5 14.5t35.5 -14.5t14.5 -35.5t-14.5 -35.5t-35.5 -14.5t-35.5 14.5t-14.5 35.5z" />
    <glyph glyph-name="semicolon" unicode=";" horiz-adv-x="300" 
d="M100 453q0 21 14.5 35.5t35.5 14.5t35.5 -14.5t14.5 -35.5t-14.5 -35.5t-35.5 -14.5t-35.5 14.5t-14.5 35.5zM69 -147l58 273h61l-75 -273h-44z" />
    <glyph glyph-name="less" unicode="&#x3c;" horiz-adv-x="672" 
d="M94 342v38l485 218v-51l-409 -185v-2l409 -185v-51z" />
    <glyph glyph-name="equal" unicode="=" horiz-adv-x="583" 
d="M53 436v48h477v-48h-477zM53 240v48h477v-48h-477z" />
    <glyph glyph-name="greater" unicode="&#x3e;" horiz-adv-x="672" 
d="M579 380v-38l-485 -218v51l409 185v2l-409 185v51z" />
    <glyph glyph-name="question" unicode="?" horiz-adv-x="466" 
d="M150 188l-19 165q99 0 162 44.5t63 122.5q0 68 -47 113t-118 45q-68 0 -129 -39l-6 60q62 36 138 36q95 0 159 -61t64 -151q0 -89 -63 -148.5t-157 -68.5l8 -118h-55zM143 38q0 20 14.5 34.5t34.5 14.5t34.5 -14.5t14.5 -34.5t-14.5 -34.5t-34.5 -14.5t-34.5 14.5
t-14.5 34.5z" />
    <glyph glyph-name="at" unicode="@" horiz-adv-x="814" 
d="M40 246q0 158 104.5 265.5t263.5 107.5q158 0 262.5 -107.5t104.5 -262.5q0 -86 -37 -140.5t-109 -54.5q-80 0 -111 65h-2q-55 -66 -137 -66q-68 0 -112 47t-44 123q0 86 54.5 151t141.5 65q58 0 111 -37l40 7l-18 -205q-1 -10 -1 -21q0 -44 21.5 -68.5t61.5 -24.5
q48 0 76 39t28 116q0 143 -93 240.5t-237 97.5t-237.5 -97.5t-93.5 -239.5t93.5 -239.5t237.5 -97.5q126 0 217 78l20 -31q-99 -83 -238 -83q-158 0 -262.5 108t-104.5 265zM385 94q75 0 122 68q-2 10 0 41l14 155q-48 40 -105 40q-64 0 -105.5 -52t-41.5 -121
q0 -59 31.5 -95t84.5 -36z" />
    <glyph glyph-name="A" unicode="A" horiz-adv-x="684" 
d="M11 0l301 724h58l303 -724h-66l-89 216h-355l-89 -216h-63zM495 272l-73 179q-43 106 -80 199h-2q-38 -97 -80 -198l-74 -180h309z" />
    <glyph glyph-name="B" unicode="B" horiz-adv-x="632" 
d="M90 0v724h188q123 0 183 -36q83 -50 83 -149q0 -59 -32.5 -100.5t-90.5 -58.5v-2q70 -12 111 -58.5t41 -117.5q0 -99 -78 -155q-35 -25 -84 -36t-134 -11h-187zM151 397h167q72 0 118.5 35t46.5 100q0 72 -60 108q-46 28 -151 28h-121v-271zM151 56h130q127 0 178 37
q53 39 53 109q0 67 -51 105.5t-137 38.5h-173v-290z" />
    <glyph glyph-name="C" unicode="C" horiz-adv-x="684" 
d="M48 361q0 158 105 266t272 108q102 0 194 -46v-68q-86 57 -194 57q-140 0 -228 -90.5t-88 -225.5t89 -225.5t231 -90.5q113 0 203 63v-68q-87 -52 -206 -52q-166 0 -272 106.5t-106 265.5z" />
    <glyph glyph-name="D" unicode="D" horiz-adv-x="737" 
d="M90 0v724h185q172 0 276 -74q67 -48 104.5 -123t37.5 -163q0 -84 -34 -156t-91 -119q-107 -89 -306 -89h-172zM151 56h119q165 0 254 72q50 41 79 102t29 132q0 75 -31 137.5t-84 102.5q-87 66 -248 66h-118v-612z" />
    <glyph glyph-name="E" unicode="E" horiz-adv-x="552" 
d="M90 0v724h401v-56h-340v-264h301v-56h-301v-292h349v-56h-410z" />
    <glyph glyph-name="F" unicode="F" horiz-adv-x="555" 
d="M90 0v724h411v-56h-350v-278h311v-56h-311v-334h-61z" />
    <glyph glyph-name="G" unicode="G" horiz-adv-x="736" 
d="M48 361q0 160 106 267t273 107q116 0 213 -56v-70q-94 69 -215 69q-140 0 -228 -90.5t-88 -225.5q0 -134 87.5 -225.5t229.5 -91.5q99 0 174 43v203h-184v56h245v-290q-104 -68 -240 -68q-161 0 -267 106.5t-106 265.5z" />
    <glyph glyph-name="H" unicode="H" horiz-adv-x="740" 
d="M90 0v724h61v-320h438v320h61v-724h-61v348h-438v-348h-61z" />
    <glyph glyph-name="I" unicode="I" horiz-adv-x="241" 
d="M90 0v724h61v-724h-61z" />
    <glyph glyph-name="J" unicode="J" horiz-adv-x="396" 
d="M245 196v528h61v-526q0 -112 -37 -158q-41 -51 -126 -51q-51 0 -105 22v59q56 -24 104 -24q62 0 82.5 37t20.5 113z" />
    <glyph glyph-name="K" unicode="K" horiz-adv-x="614" 
d="M90 0v724h61v-330l2 -1l350 331h77l-356 -335l386 -389h-82l-375 379l-2 -1v-378h-61z" />
    <glyph glyph-name="L" unicode="L" horiz-adv-x="548" 
d="M90 0v724h61v-668h359v-56h-420z" />
    <glyph glyph-name="M" unicode="M" horiz-adv-x="860" 
d="M429 218l-171 246q-70 101 -108 157l-2 -1q1 -58 1 -185v-435h-59v724h59l281 -404l281 404h59v-724h-61v435q0 127 1 185l-2 1q-38 -56 -108 -157z" />
    <glyph glyph-name="N" unicode="N" horiz-adv-x="765" 
d="M149 0h-59v724h58l331 -441q62 -83 136 -184l2 1q-1 70 -1 217v407h59v-724h-58l-331 441q-62 83 -136 184l-2 -1q1 -70 1 -217v-407z" />
    <glyph glyph-name="O" unicode="O" horiz-adv-x="824" 
d="M47 362q0 157 105 265t260 108t260 -108t105 -265t-105 -265t-260 -108t-260 108t-105 265zM108 362q0 -133 86.5 -224.5t217.5 -91.5t217.5 91.5t86.5 224.5t-86.5 224.5t-217.5 91.5t-217.5 -91.5t-86.5 -224.5z" />
    <glyph glyph-name="P" unicode="P" horiz-adv-x="617" 
d="M90 0v724h189q142 0 212 -46q88 -58 88 -164q0 -108 -85 -165q-69 -47 -226 -47h-117v-302h-61zM151 356h124q128 0 183 38q59 41 59 118q0 80 -64 121q-54 35 -178 35h-124v-312z" />
    <glyph glyph-name="Q" unicode="Q" horiz-adv-x="824" 
d="M47 362q0 157 105 265t260 108t260 -108t105 -265q0 -137 -81 -238t-208 -127v-2q115 -81 252 -127l-63 -37q-144 54 -273 158q-152 3 -254.5 110.5t-102.5 262.5zM108 362q0 -133 86.5 -224.5t217.5 -91.5t217.5 91.5t86.5 224.5t-86.5 224.5t-217.5 91.5t-217.5 -91.5
t-86.5 -224.5z" />
    <glyph glyph-name="R" unicode="R" horiz-adv-x="639" 
d="M90 0v724h194q134 0 200 -43q84 -55 84 -156q0 -98 -76 -153q-43 -32 -117 -43l242 -329h-74l-236 324h-156v-324h-61zM151 376h152q107 0 158 42q46 39 46 104q0 74 -59 113q-50 33 -168 33h-129v-292z" />
    <glyph glyph-name="S" unicode="S" horiz-adv-x="554" 
d="M69 49v68q91 -71 212 -71q76 0 122 36.5t46 104.5q0 22 -6.5 41t-13.5 32t-25 25.5t-28.5 19t-36.5 15.5t-36.5 12t-40.5 11q-37 10 -62 19t-54.5 25.5t-47.5 36t-30 49.5t-12 68q0 91 60.5 142.5t160.5 51.5q119 0 203 -57v-66q-92 66 -204 66q-73 0 -116 -34.5
t-43 -98.5q0 -35 12 -60t43 -42t50.5 -24t65.5 -20q7 -2 10 -3q38 -11 62.5 -19.5t56 -25.5t49.5 -37t31 -52t13 -72q0 -94 -62.5 -147.5t-166.5 -53.5q-123 0 -212 60z" />
    <glyph glyph-name="T" unicode="T" horiz-adv-x="619" 
d="M279 0v668h-249v56h559v-56h-249v-668h-61z" />
    <glyph glyph-name="U" unicode="U" horiz-adv-x="723" 
d="M144 80q-36 45 -49.5 108t-13.5 156v380h61v-375q0 -167 50 -231q56 -72 172 -72q127 0 180 85q39 62 39 216v377h59v-374q0 -93 -11 -152.5t-40 -103.5q-71 -105 -230 -105q-145 0 -217 91z" />
    <glyph glyph-name="V" unicode="V" horiz-adv-x="651" 
d="M419 320l156 404h63l-281 -724h-61l-283 724h66l158 -406q45 -115 90 -235h2q33 90 90 237z" />
    <glyph glyph-name="W" unicode="W" horiz-adv-x="997" 
d="M245 0l-228 724h66l128 -410q47 -152 67 -220h2q29 95 69 222l129 408h45l132 -418q30 -94 66 -212h2q29 97 64 210l131 420h62l-227 -724h-63l-132 418q-32 101 -57 185h-2q-25 -87 -56 -182l-133 -421h-65z" />
    <glyph glyph-name="X" unicode="X" horiz-adv-x="648" 
d="M422 564l112 160h69l-239 -340l273 -384h-73l-134 189q-64 91 -106 153h-2q-37 -54 -107 -153l-134 -189h-69l273 384l-239 340h73l108 -155q58 -83 98 -143h2q39 58 95 138z" />
    <glyph glyph-name="Y" unicode="Y" horiz-adv-x="644" 
d="M447 559l116 165h69l-279 -396v-328h-61v327l-280 397h71l116 -165q61 -87 123 -177h2q39 57 123 177z" />
    <glyph glyph-name="Z" unicode="Z" horiz-adv-x="619" 
d="M577 0h-549l-1 2l449 664l-1 2h-423v56h532l1 -2l-449 -664l1 -2h440v-56z" />
    <glyph glyph-name="bracketleft" unicode="[" horiz-adv-x="338" 
d="M150 -165h149v-48h-203v956h203v-48h-149v-860z" />
    <glyph glyph-name="backslash" unicode="\" horiz-adv-x="437" 
d="M361 -38l-336 800h51l336 -800h-51z" />
    <glyph glyph-name="bracketright" unicode="]" horiz-adv-x="338" 
d="M39 -165h149v860h-149v48h203v-956h-203v48z" />
    <glyph glyph-name="asciicircum" unicode="^" horiz-adv-x="585" 
d="M82 362l188 373h45l188 -373h-52l-158 309h-1l-158 -309h-52z" />
    <glyph glyph-name="underscore" unicode="_" horiz-adv-x="462" 
d="M0 -97h462v-37h-462v37z" />
    <glyph glyph-name="grave" unicode="`" horiz-adv-x="486" 
d="M248 563l-105 164h65l86 -164h-46z" />
    <glyph glyph-name="a" unicode="a" horiz-adv-x="529" 
d="M218 -11q-71 0 -116 34q-51 38 -51 106q0 73 62 114q51 33 135 33q60 0 127 -18v57q0 71 -36 103q-36 31 -101 31q-85 0 -151 -48v59q70 44 157 44q89 0 140 -43q50 -42 50 -132v-213q0 -73 50 -73q18 0 32 8v-51q-18 -8 -43 -8q-68 0 -89 58h-2q-71 -61 -164 -61z
M226 42q82 0 149 58v111q-62 18 -122 18t-101 -22.5t-41 -72.5q0 -45 33 -68.5t82 -23.5z" />
    <glyph glyph-name="b" unicode="b" horiz-adv-x="590" 
d="M87 13v751h59v-315l2 -1q71 55 156 55q101 0 169 -71t68 -181q0 -113 -71.5 -187.5t-183.5 -74.5q-70 0 -142 34zM146 78q70 -37 142 -37q87 0 140.5 59.5t53.5 147.5q0 87 -51.5 144.5t-133.5 57.5q-88 0 -151 -63v-309z" />
    <glyph glyph-name="c" unicode="c" horiz-adv-x="514" 
d="M50 244q0 112 75 185.5t190 73.5q72 0 134 -32v-62q-65 40 -136 40q-90 0 -147 -58.5t-57 -146.5t57.5 -144.5t146.5 -56.5q84 0 144 47v-64q-63 -37 -147 -37q-114 0 -187 72.5t-73 182.5z" />
    <glyph glyph-name="d" unicode="d" 
d="M51 237q0 112 69.5 189t183.5 77q66 0 140 -35l2 1v295h59v-764h-59v46l-2 1q-65 -58 -158 -58q-100 0 -167.5 68.5t-67.5 179.5zM110 241q0 -87 50.5 -143t134.5 -56q89 0 151 62v306q-68 40 -140 40q-89 0 -142.5 -59.5t-53.5 -149.5z" />
    <glyph glyph-name="e" unicode="e" horiz-adv-x="566" 
d="M510 230h-401q7 -86 64 -137t145 -51q87 0 165 57v-64q-74 -46 -169 -46q-114 0 -188.5 71.5t-74.5 185.5q0 112 70.5 184.5t172.5 72.5q93 0 155.5 -62.5t62.5 -168.5q0 -18 -2 -42zM292 450q-66 0 -118 -45t-63 -126h343q-2 89 -51.5 130t-110.5 41z" />
    <glyph glyph-name="f" unicode="f" horiz-adv-x="328" 
d="M109 0v440h-84v52h84v107q0 98 42 139q38 37 106 37q35 0 64 -9v-53q-27 8 -62 8q-52 0 -71.5 -29t-19.5 -85v-115h137v-52h-137v-440h-59z" />
    <glyph glyph-name="g" unicode="g" horiz-adv-x="589" 
d="M113 -193v63q74 -47 152 -47q82 0 130 47t48 129v54l-2 1q-63 -55 -154 -55q-101 0 -168.5 69t-67.5 176q0 108 67.5 184t181.5 76q74 0 145 -38l57 10v-476q0 -105 -63 -168t-174 -63q-83 0 -152 38zM111 248q0 -85 51 -140.5t133 -55.5q90 0 148 60v296q-64 42 -144 42
q-85 0 -136.5 -57.5t-51.5 -144.5z" />
    <glyph glyph-name="h" unicode="h" horiz-adv-x="591" 
d="M87 0v764h59v-341l2 -1q86 81 189 81q79 0 126 -50q44 -47 44 -147v-306h-59v295q0 85 -32 118q-32 35 -89 35q-96 0 -181 -88v-360h-59z" />
    <glyph glyph-name="i" unicode="i" horiz-adv-x="233" 
d="M162 663q0 -19 -13.5 -32t-32.5 -13t-32 13.5t-13 32.5t13.5 32t32.5 13t32 -13.5t13 -32.5zM87 0v492h59v-492h-59z" />
    <glyph glyph-name="j" unicode="j" horiz-adv-x="235" 
d="M73 664q0 19 13.5 32t32.5 13t32 -13.5t13 -32.5t-13.5 -32t-32.5 -13t-32 13.5t-13 32.5zM89 -71v563h59v-560q0 -85 -32 -122q-36 -41 -105 -41q-26 0 -54 7v53q34 -6 53 -6q45 0 62 26.5t17 79.5z" />
    <glyph glyph-name="k" unicode="k" horiz-adv-x="505" 
d="M87 0v764h59v-489l1 -1l249 218h76l-252 -220l278 -272h-79l-272 268l-1 -1v-267h-59z" />
    <glyph glyph-name="l" unicode="l" horiz-adv-x="233" 
d="M87 0v764h59v-764h-59z" />
    <glyph glyph-name="m" unicode="m" horiz-adv-x="935" 
d="M791 0v299q0 81 -31 115t-89 34q-94 0 -176 -86q3 -24 3 -53v-309h-59v299q0 82 -30 115q-33 34 -90 34q-89 0 -173 -84v-364h-59v492h59v-67l2 -1q86 79 182 79q51 0 92 -22.5t60 -68.5q96 91 199 91q80 0 126 -49q43 -46 43 -145v-309h-59z" />
    <glyph glyph-name="n" unicode="n" 
d="M87 0v492h59v-69l2 -1q88 81 189 81q79 0 126 -50q44 -47 44 -147v-306h-59v295q0 84 -31 118q-32 35 -92 35q-96 0 -179 -88v-360h-59z" />
    <glyph glyph-name="o" unicode="o" horiz-adv-x="610" 
d="M50 246q0 109 72.5 183t182.5 74t182.5 -74t72.5 -183t-72.5 -183t-182.5 -74t-182.5 74t-72.5 183zM109 246q0 -87 56 -145t140 -58t140 58t56 145t-56 145t-140 58t-140 -58t-56 -145z" />
    <glyph glyph-name="p" unicode="p" 
d="M146 31v-251h-59v712h59v-42l2 -1q72 54 155 54q103 0 170.5 -72.5t67.5 -183.5q0 -113 -70 -185.5t-177 -72.5q-80 0 -146 43zM146 92q65 -51 148 -51q84 0 136 57t52 146t-52 147.5t-135 58.5q-87 0 -149 -59v-299z" />
    <glyph glyph-name="q" unicode="q" 
d="M51 242q0 112 70 186.5t182 74.5q71 0 145 -37l57 10v-696h-59v262l-2 1q-68 -54 -154 -54q-102 0 -170.5 71.5t-68.5 181.5zM110 246q0 -87 52 -146t134 -59q86 0 150 59v309q-70 41 -144 41q-86 0 -139 -58.5t-53 -145.5z" />
    <glyph glyph-name="r" unicode="r" horiz-adv-x="351" 
d="M87 0v492h59v-80l2 -1q64 86 159 86q15 0 29 -3v-57q-14 3 -31 3q-95 0 -159 -96v-344h-59z" />
    <glyph glyph-name="s" unicode="s" horiz-adv-x="485" 
d="M59 32v63q81 -52 186 -52q64 0 100 22.5t36 65.5q0 20 -9 35.5t-20.5 24t-34.5 15.5t-37.5 10t-44.5 7q-9 1 -13 2q-37 6 -63 13.5t-54 22t-43 40t-15 61.5q0 68 52 104.5t139 36.5q99 0 177 -42v-62q-79 50 -179 50q-60 0 -95 -21t-35 -62q0 -30 24 -48.5t44 -23.5
t70 -13q3 -1 5 -1.5t5 -1t6 -0.5q40 -6 67 -14t55.5 -23t43 -41.5t14.5 -63.5q0 -71 -53.5 -109t-144.5 -38q-106 0 -183 43z" />
    <glyph glyph-name="t" unicode="t" horiz-adv-x="372" 
d="M157 31q-35 41 -35 137v272h-98v52h98v138l59 10v-148h159v-52h-159v-262q0 -65 18 -100t71 -35q39 0 70 18v-56q-34 -16 -78 -16q-68 0 -105 42z" />
    <glyph glyph-name="u" unicode="u" 
d="M128 41q-43 49 -43 154v297h59v-286q0 -91 31 -126q33 -37 93 -37q92 0 178 91v358h59v-492h-59v70l-2 1q-86 -82 -187 -82q-83 0 -129 52z" />
    <glyph glyph-name="v" unicode="v" horiz-adv-x="538" 
d="M343 249l103 243h62l-210 -492h-58l-210 492h64l103 -243q39 -92 72 -173h2q33 81 72 173z" />
    <glyph glyph-name="w" unicode="w" horiz-adv-x="810" 
d="M203 0l-173 492h63l87 -249q36 -104 56 -164h2q24 69 57 161l91 252h41l89 -246q29 -80 59 -166h2q20 60 55 162l87 250h61l-173 -492h-59l-87 240q-33 92 -54 154h-2q-26 -76 -55 -156l-86 -238h-61z" />
    <glyph glyph-name="x" unicode="x" horiz-adv-x="491" 
d="M322 395l76 97h67l-181 -230l206 -262h-70l-87 111q-36 45 -87 113h-2q-52 -68 -89 -115l-86 -109h-67l206 261l-182 231h70l77 -98q44 -56 73 -95h2q38 51 74 96z" />
    <glyph glyph-name="y" unicode="y" horiz-adv-x="540" 
d="M347 283l99 209h62l-340 -712h-63l133 273l-208 439h65l98 -208q39 -83 76 -164h2q44 94 76 163z" />
    <glyph glyph-name="z" unicode="z" horiz-adv-x="471" 
d="M439 0h-413l-1 2l313 434l-1 2h-293v54h400l1 -2l-313 -434l1 -2h306v-54z" />
    <glyph glyph-name="braceleft" unicode="{" horiz-adv-x="360" 
d="M142 -70v219q0 52 -15.5 72t-70.5 20h-24v48h24q55 0 70.5 20t15.5 72v219q0 80 31.5 117t102.5 37q33 0 56 -5v-48q-23 5 -51 5q-49 0 -67 -25.5t-18 -86.5v-211q0 -49 -12.5 -78t-47.5 -39v-2q35 -10 47.5 -39t12.5 -78v-211q0 -61 18 -86.5t67 -25.5q28 0 51 5v-48
q-23 -5 -56 -5q-71 0 -102.5 37t-31.5 117z" />
    <glyph glyph-name="bar" unicode="|" horiz-adv-x="319" 
d="M135 -220v1020h49v-1020h-49z" />
    <glyph glyph-name="braceright" unicode="}" horiz-adv-x="360" 
d="M218 149v-219q0 -80 -31.5 -117t-102.5 -37q-33 0 -56 5v48q23 -5 51 -5q49 0 67 25.5t18 86.5v211q0 49 12.5 78t47.5 39v2q-35 10 -47.5 39t-12.5 78v211q0 61 -18 86.5t-67 25.5q-28 0 -51 -5v48q23 5 56 5q71 0 102.5 -37t31.5 -117v-219q0 -52 15.5 -72t70.5 -20h24
v-48h-24q-55 0 -70.5 -20t-15.5 -72z" />
    <glyph glyph-name="asciitilde" unicode="~" horiz-adv-x="552" 
d="M266 339q-63 35 -97 35q-55 0 -93 -67l-2 1v66q31 51 95 51q44 0 117 -40q63 -35 97 -35q55 0 93 67l2 -1v-66q-31 -51 -95 -51q-44 0 -117 40z" />
    <glyph glyph-name="uni00A0" unicode="&#xa0;" horiz-adv-x="245" 
 />
    <glyph glyph-name="exclamdown" unicode="&#xa1;" horiz-adv-x="314" 
d="M206 454q0 -20 -14.5 -34.5t-34.5 -14.5t-34.5 14.5t-14.5 34.5t14.5 34.5t34.5 14.5t34.5 -14.5t14.5 -34.5zM176 282l14 -514h-66l14 514h38z" />
    <glyph glyph-name="cent" unicode="&#xa2;" horiz-adv-x="522" 
d="M264 -18v126q-96 15 -155 84t-59 167q0 99 59 169t155 87v127h49v-123q75 0 136 -32v-62q-65 40 -135 40q-91 0 -148 -58.5t-57 -146.5t57.5 -144.5t146.5 -56.5q84 0 144 47v-64q-59 -35 -144 -37v-123h-49z" />
    <glyph glyph-name="sterling" unicode="&#xa3;" horiz-adv-x="561" 
d="M79 323v50h65q-2 6 -11 30.5t-12.5 34.5t-9 29t-7.5 34.5t-2 31.5q0 95 62.5 148.5t157.5 53.5q94 0 159 -46v-67q-71 56 -157 56q-70 0 -115.5 -38.5t-45.5 -107.5q0 -17 5 -39.5t9 -35.5t15.5 -44t14.5 -40h196v-50h-181q11 -39 11 -77q0 -56 -23 -105.5t-58 -82.5
l1 -2h359v-56h-433v48q40 34 67.5 84.5t27.5 108.5q0 38 -13 82h-82z" />
    <glyph glyph-name="currency" unicode="&#xa4;" horiz-adv-x="608" 
d="M91 350q0 74 42 130l-74 73l39 39l73 -73q57 44 133 44t133 -44l73 73l39 -39l-74 -73q42 -56 42 -130t-42 -130l74 -73l-39 -39l-73 73q-57 -44 -133 -44t-133 44l-73 -73l-39 39l74 73q-42 56 -42 130zM140 350q0 -70 47 -117.5t117 -47.5t117 47.5t47 117.5t-47 117.5
t-117 47.5t-117 -47.5t-47 -117.5z" />
    <glyph glyph-name="yen" unicode="&#xa5;" horiz-adv-x="658" 
d="M543 724h69l-182 -257h138v-48h-171l-38 -55v-84h209v-49h-209v-231h-61v231h-209v49h209v84l-39 55h-170v48h136l-181 257h71l90 -128q61 -87 123 -177h2q39 57 123 177z" />
    <glyph glyph-name="brokenbar" unicode="&#xa6;" horiz-adv-x="319" 
d="M135 408v392h49v-392h-49zM135 172h49v-392h-49v392z" />
    <glyph glyph-name="section" unicode="&#xa7;" horiz-adv-x="555" 
d="M121 -55q73 -47 149 -47q57 0 92.5 26.5t35.5 76.5q0 26 -10.5 45.5t-33 34t-47 25t-60.5 24.5q-11 4 -17 6q-40 15 -64 27t-52.5 32.5t-42.5 49t-14 65.5q0 54 30.5 90.5t82.5 52.5v2q-64 46 -64 119q0 72 51.5 114t129.5 42q77 0 139 -37v-59q-65 43 -138 43
q-55 0 -89.5 -26.5t-34.5 -74.5q0 -26 9 -45t36 -35.5t42 -23t61 -23.5q12 -5 18 -7q40 -15 64.5 -27t53 -32.5t42.5 -50t14 -67.5q0 -55 -30 -90.5t-81 -50.5v-2q63 -43 63 -121q0 -73 -51.5 -114.5t-133.5 -41.5q-86 0 -150 39v61zM291 399q-49 18 -67 26
q-109 -25 -109 -110q0 -27 10.5 -48t35 -37t46.5 -25.5t62 -24.5q48 -18 71 -29q106 23 106 110q0 52 -37 80t-118 58z" />
    <glyph glyph-name="dieresis" unicode="&#xa8;" horiz-adv-x="486" 
d="M335 604q-17 0 -29 12t-12 29t12 29t29 12t29 -12t12 -29t-12 -29t-29 -12zM151 604q-17 0 -29 12t-12 29t12 29t29 12t29 -12t12 -29t-12 -29t-29 -12z" />
    <glyph glyph-name="copyright" unicode="&#xa9;" horiz-adv-x="815" 
d="M39 362q0 158 105.5 265.5t263.5 107.5t263.5 -107.5t105.5 -265.5t-105.5 -265.5t-263.5 -107.5t-263.5 107.5t-105.5 265.5zM75 362q0 -144 94 -241t239 -97t239 97t94 241t-94 241t-239 97t-239 -97t-94 -241zM218 365q0 88 58.5 147t149.5 59q58 0 108 -26v-47
q-49 32 -109 32q-72 0 -117.5 -46.5t-45.5 -117.5t46 -116.5t118 -45.5q66 0 114 37v-48q-48 -30 -116 -30q-90 0 -148 57.5t-58 144.5z" />
    <glyph glyph-name="ordfeminine" unicode="&#xaa;" horiz-adv-x="374" 
d="M168 401q-43 0 -74 22q-34 28 -34 70q0 49 39 75q31 21 89 21q38 0 79 -11v36q0 81 -85 81q-53 0 -98 -31v44q41 28 103 28q60 0 93 -28q33 -30 33 -86v-136q0 -44 30 -44q11 0 21 5v-38q-12 -6 -30 -6q-44 0 -60 36h-1q-46 -38 -105 -38zM175 439q52 0 92 35v69
q-36 11 -74 11q-88 0 -88 -59q0 -28 20.5 -42t49.5 -14z" />
    <glyph glyph-name="guillemotleft" unicode="&#xab;" horiz-adv-x="540" 
d="M226 27l-168 219l168 219h54l-168 -219l168 -219h-54zM423 27l-168 219l168 219h54l-168 -219l168 -219h-54z" />
    <glyph glyph-name="logicalnot" unicode="&#xac;" horiz-adv-x="584" 
d="M54 338v48h477v-270h-50v222h-427z" />
    <glyph glyph-name="uni00AD" unicode="&#xad;" horiz-adv-x="358" 
d="M63 251v52h233v-52h-233z" />
    <glyph glyph-name="registered" unicode="&#xae;" horiz-adv-x="452" 
d="M39 549q0 80 53 133t134 53t134 -53t53 -133t-53 -133t-134 -53t-134 53t-53 133zM63 549q0 -71 46 -117t117 -46t117 46t46 117t-46 117t-117 46t-117 -46t-46 -117zM279 448l-51 77h-40v-77h-28v202h67q34 0 55 -16.5t21 -46.5q0 -43 -47 -58l55 -81h-32zM188 549h39
q47 0 47 38q0 17 -12.5 27.5t-34.5 10.5h-39v-76z" />
    <glyph glyph-name="macron" unicode="&#xaf;" horiz-adv-x="486" 
d="M111 622v46h264v-46h-264z" />
    <glyph glyph-name="degree" unicode="&#xb0;" horiz-adv-x="392" 
d="M196 441q-64 0 -106.5 42.5t-42.5 104.5t42.5 104.5t106.5 42.5t106.5 -42.5t42.5 -104.5t-42.5 -104.5t-106.5 -42.5zM196 475q49 0 81.5 32.5t32.5 80.5t-32.5 80.5t-81.5 32.5t-81.5 -32.5t-32.5 -80.5t32.5 -80.5t81.5 -32.5z" />
    <glyph glyph-name="plusminus" unicode="&#xb1;" horiz-adv-x="583" 
d="M267 238v192h-203v48h203v192h49v-192h203v-48h-203v-192h-49zM65 87v48h454v-48h-454z" />
    <glyph glyph-name="two.superior" unicode="&#xb2;" horiz-adv-x="360" 
d="M26 422l-1 2l149 167q75 83 75 143q0 41 -25.5 62.5t-66.5 21.5q-51 0 -100 -34v50q46 29 103 29q62 0 100.5 -34t38.5 -93q0 -73 -77 -160l-94 -107l1 -2h188v-45h-291z" />
    <glyph glyph-name="three.superior" unicode="&#xb3;" horiz-adv-x="350" 
d="M40 451v53q60 -44 123 -44q43 0 71 22t28 59q0 36 -26.5 57t-76.5 21h-43v41h39q43 0 68.5 22.5t25.5 57.5q0 36 -26 57t-68 21q-46 0 -88 -26v48q41 23 93 23q60 0 99.5 -33t39.5 -84q0 -33 -18 -61t-52 -39v-2q42 -11 62 -40t20 -65q0 -55 -41.5 -89.5t-107.5 -34.5
q-69 0 -122 36z" />
    <glyph glyph-name="acute" unicode="&#xb4;" horiz-adv-x="486" 
d="M343 727l-105 -164h-46l86 164h65z" />
    <glyph glyph-name="mu" unicode="&#xb5;" horiz-adv-x="599" 
d="M508 0h-59v70l-2 1q-86 -82 -187 -82q-76 0 -114 41l-2 -1l6 -249h-62v712h59v-286q0 -91 31 -126q33 -37 93 -37q92 0 178 91v358h59v-492z" />
    <glyph glyph-name="paragraph" unicode="&#xb6;" horiz-adv-x="551" 
d="M247 -220v582q-76 0 -129.5 53t-53.5 128t53.5 128t129.5 53h192v-944h-50v897h-92v-897h-50z" />
    <glyph glyph-name="periodcentered" unicode="&#xb7;" horiz-adv-x="299" 
d="M100 302q0 21 14.5 35.5t35.5 14.5t35.5 -14.5t14.5 -35.5t-14.5 -35.5t-35.5 -14.5t-35.5 14.5t-14.5 35.5z" />
    <glyph glyph-name="cedilla" unicode="&#xb8;" horiz-adv-x="486" 
d="M202 -81l30 101l33 -7l-19 -63q92 -18 92 -87q0 -38 -26.5 -61t-70.5 -23q-40 0 -76 18l11 36q36 -18 65 -18q24 0 39.5 12t15.5 33q0 51 -94 59z" />
    <glyph glyph-name="one.superior" unicode="&#xb9;" horiz-adv-x="323" 
d="M160 422v377l-108 -41v46l156 59v-441h-48z" />
    <glyph glyph-name="ordmasculine" unicode="&#xba;" horiz-adv-x="412" 
d="M41 568q0 73 46 120t119 47t119 -47t46 -120t-46 -120t-119 -47t-119 47t-46 120zM87 568q0 -55 33.5 -90t85.5 -35t85.5 35t33.5 90t-33.5 90t-85.5 35t-85.5 -35t-33.5 -90z" />
    <glyph glyph-name="guillemotright" unicode="&#xbb;" horiz-adv-x="540" 
d="M63 27l168 219l-168 219h54l168 -219l-168 -219h-54zM260 27l168 219l-168 219h54l168 -219l-168 -219h-54z" />
    <glyph glyph-name="onequarter" unicode="&#xbc;" horiz-adv-x="925" 
d="M239 -13h-56l480 737h56zM738 0v110h-233l-1 2l236 322h46v-283h87v-41h-87v-110h-48zM672 273l-88 -120l1 -2h153v99q0 76 1 114l-2 1q-33 -48 -65 -92zM168 294v377l-108 -41v46l156 59v-441h-48z" />
    <glyph glyph-name="onehalf" unicode="&#xbd;" horiz-adv-x="952" 
d="M588 0l-1 2l149 167q75 83 75 143q0 41 -25.5 62.5t-66.5 21.5q-51 0 -100 -34v50q46 29 103 29q62 0 100.5 -34t38.5 -93q0 -73 -77 -160l-94 -107l1 -2h188v-45h-291zM239 -13h-56l480 737h56zM168 294v377l-108 -41v46l156 59v-441h-48z" />
    <glyph glyph-name="threequarters" unicode="&#xbe;" horiz-adv-x="956" 
d="M58 323v53q60 -44 123 -44q43 0 71 22t28 59q0 36 -26.5 57t-76.5 21h-43v41h39q43 0 68.5 22.5t25.5 57.5q0 36 -26 57t-68 21q-46 0 -88 -26v48q41 23 93 23q60 0 99.5 -33t39.5 -84q0 -33 -18 -61t-52 -39v-2q42 -11 62 -40t20 -65q0 -55 -41.5 -89.5t-107.5 -34.5
q-69 0 -122 36zM270 -13h-56l480 737h56zM769 0v110h-233l-1 2l236 322h46v-283h87v-41h-87v-110h-48zM703 273l-88 -120l1 -2h153v99q0 76 1 114l-2 1q-33 -48 -65 -92z" />
    <glyph glyph-name="questiondown" unicode="&#xbf;" horiz-adv-x="466" 
d="M328 454q0 -20 -14.5 -34.5t-34.5 -14.5t-34.5 14.5t-14.5 34.5t14.5 34.5t34.5 14.5t34.5 -14.5t14.5 -34.5zM321 304l19 -165q-99 0 -162 -44.5t-63 -122.5q0 -68 47 -113t118 -45q68 0 129 39l6 -60q-62 -36 -138 -36q-95 0 -159 61t-64 151q0 89 63 148.5t157 68.5
l-8 118h55z" />
    <glyph glyph-name="Agrave" unicode="&#xc0;" horiz-adv-x="684" 
d="M11 0l301 724h58l303 -724h-66l-89 216h-355l-89 -216h-63zM495 272l-73 179q-43 106 -80 199h-2q-38 -97 -80 -198l-74 -180h309zM347 795l-105 164h65l86 -164h-46z" />
    <glyph glyph-name="Aacute" unicode="&#xc1;" horiz-adv-x="684" 
d="M11 0l301 724h58l303 -724h-66l-89 216h-355l-89 -216h-63zM495 272l-73 179q-43 106 -80 199h-2q-38 -97 -80 -198l-74 -180h309zM442 959l-105 -164h-46l86 164h65z" />
    <glyph glyph-name="Acircumflex" unicode="&#xc2;" horiz-adv-x="684" 
d="M11 0l301 724h58l303 -724h-66l-89 216h-355l-89 -216h-63zM495 272l-73 179q-43 106 -80 199h-2q-38 -97 -80 -198l-74 -180h309zM195 795l116 164h62l116 -164h-50l-97 125l-97 -125h-50z" />
    <glyph glyph-name="Atilde" unicode="&#xc3;" horiz-adv-x="684" 
d="M11 0l301 724h58l303 -724h-66l-89 216h-355l-89 -216h-63zM495 272l-73 179q-43 106 -80 199h-2q-38 -97 -80 -198l-74 -180h309zM336 856q-43 26 -66 26q-44 0 -78 -52l-2 1v56q29 44 79 44q32 0 79 -27q43 -26 66 -26q44 0 78 52l2 -1v-56q-29 -44 -79 -44
q-35 0 -79 27z" />
    <glyph glyph-name="Adieresis" unicode="&#xc4;" horiz-adv-x="684" 
d="M11 0l301 724h58l303 -724h-66l-89 216h-355l-89 -216h-63zM495 272l-73 179q-43 106 -80 199h-2q-38 -97 -80 -198l-74 -180h309zM434 836q-17 0 -29 12t-12 29t12 29t29 12t29 -12t12 -29t-12 -29t-29 -12zM250 836q-17 0 -29 12t-12 29t12 29t29 12t29 -12t12 -29
t-12 -29t-29 -12z" />
    <glyph glyph-name="Aring" unicode="&#xc5;" horiz-adv-x="684" 
d="M11 0l301 724h58l303 -724h-66l-89 216h-355l-89 -216h-63zM495 272l-73 179q-43 106 -80 199h-2q-38 -97 -80 -198l-74 -180h309zM230 897q0 47 32 79t80 32t80 -32t32 -79t-32 -79t-80 -32t-80 32t-32 79zM268 897q0 -32 20.5 -53.5t53.5 -21.5t53.5 21.5t20.5 53.5
t-20.5 53.5t-53.5 21.5t-53.5 -21.5t-20.5 -53.5z" />
    <glyph glyph-name="AE" unicode="&#xc6;" horiz-adv-x="926" 
d="M8 0l431 724h426v-56h-330v-264h291v-56h-291v-292h339v-56h-400v217h-270l-129 -217h-67zM375 505l-139 -234h238v221q0 120 1 180h-2q-41 -71 -98 -167z" />
    <glyph glyph-name="Ccedilla" unicode="&#xc7;" horiz-adv-x="684" 
d="M349 -81l22 74q-144 18 -233.5 120.5t-89.5 247.5q0 158 105 266t272 108q102 0 194 -46v-68q-86 57 -194 57q-140 0 -228 -90.5t-88 -225.5t89 -225.5t231 -90.5q113 0 203 63v-68q-87 -52 -206 -52q-14 0 -21 1l-12 -40q92 -18 92 -87q0 -38 -26.5 -61t-70.5 -23
q-40 0 -76 18l11 36q36 -18 65 -18q24 0 39.5 12t15.5 33q0 51 -94 59z" />
    <glyph glyph-name="Egrave" unicode="&#xc8;" horiz-adv-x="552" 
d="M90 0v724h401v-56h-340v-264h301v-56h-301v-292h349v-56h-410zM295 795l-105 164h65l86 -164h-46z" />
    <glyph glyph-name="Eacute" unicode="&#xc9;" horiz-adv-x="552" 
d="M90 0v724h401v-56h-340v-264h301v-56h-301v-292h349v-56h-410zM390 959l-105 -164h-46l86 164h65z" />
    <glyph glyph-name="Ecircumflex" unicode="&#xca;" horiz-adv-x="552" 
d="M90 0v724h401v-56h-340v-264h301v-56h-301v-292h349v-56h-410zM143 795l116 164h62l116 -164h-50l-97 125l-97 -125h-50z" />
    <glyph glyph-name="Edieresis" unicode="&#xcb;" horiz-adv-x="552" 
d="M90 0v724h401v-56h-340v-264h301v-56h-301v-292h349v-56h-410zM382 836q-17 0 -29 12t-12 29t12 29t29 12t29 -12t12 -29t-12 -29t-29 -12zM198 836q-17 0 -29 12t-12 29t12 29t29 12t29 -12t12 -29t-12 -29t-29 -12z" />
    <glyph glyph-name="Igrave" unicode="&#xcc;" horiz-adv-x="241" 
d="M90 0v724h61v-724h-61zM125 795l-105 164h65l86 -164h-46z" />
    <glyph glyph-name="Iacute" unicode="&#xcd;" horiz-adv-x="241" 
d="M90 0v724h61v-724h-61zM220 959l-105 -164h-46l86 164h65z" />
    <glyph glyph-name="Icircumflex" unicode="&#xce;" horiz-adv-x="241" 
d="M90 0v724h61v-724h-61zM-27 795l116 164h62l116 -164h-50l-97 125l-97 -125h-50z" />
    <glyph glyph-name="Idieresis" unicode="&#xcf;" horiz-adv-x="241" 
d="M90 0v724h61v-724h-61zM212 836q-17 0 -29 12t-12 29t12 29t29 12t29 -12t12 -29t-12 -29t-29 -12zM28 836q-17 0 -29 12t-12 29t12 29t29 12t29 -12t12 -29t-12 -29t-29 -12z" />
    <glyph glyph-name="Eth" unicode="&#xd0;" horiz-adv-x="746" 
d="M5 344v51h94v329h185q172 0 276 -74q67 -48 104.5 -123t37.5 -163q0 -84 -34 -156t-91 -119q-107 -89 -306 -89h-172v344h-94zM160 56h119q165 0 254 72q50 41 79 102t29 132q0 75 -31 137.5t-84 102.5q-87 66 -248 66h-118v-273h171v-51h-171v-288z" />
    <glyph glyph-name="Ntilde" unicode="&#xd1;" horiz-adv-x="765" 
d="M149 0h-59v724h58l331 -441q62 -83 136 -184l2 1q-1 70 -1 217v407h59v-724h-58l-331 441q-62 83 -136 184l-2 -1q1 -70 1 -217v-407zM376 856q-43 26 -66 26q-44 0 -78 -52l-2 1v56q29 44 79 44q32 0 79 -27q43 -26 66 -26q44 0 78 52l2 -1v-56q-29 -44 -79 -44
q-35 0 -79 27z" />
    <glyph glyph-name="Ograve" unicode="&#xd2;" horiz-adv-x="824" 
d="M47 362q0 157 105 265t260 108t260 -108t105 -265t-105 -265t-260 -108t-260 108t-105 265zM108 362q0 -133 86.5 -224.5t217.5 -91.5t217.5 91.5t86.5 224.5t-86.5 224.5t-217.5 91.5t-217.5 -91.5t-86.5 -224.5zM417 795l-105 164h65l86 -164h-46z" />
    <glyph glyph-name="Oacute" unicode="&#xd3;" horiz-adv-x="824" 
d="M47 362q0 157 105 265t260 108t260 -108t105 -265t-105 -265t-260 -108t-260 108t-105 265zM108 362q0 -133 86.5 -224.5t217.5 -91.5t217.5 91.5t86.5 224.5t-86.5 224.5t-217.5 91.5t-217.5 -91.5t-86.5 -224.5zM512 959l-105 -164h-46l86 164h65z" />
    <glyph glyph-name="Ocircumflex" unicode="&#xd4;" horiz-adv-x="824" 
d="M47 362q0 157 105 265t260 108t260 -108t105 -265t-105 -265t-260 -108t-260 108t-105 265zM108 362q0 -133 86.5 -224.5t217.5 -91.5t217.5 91.5t86.5 224.5t-86.5 224.5t-217.5 91.5t-217.5 -91.5t-86.5 -224.5zM265 795l116 164h62l116 -164h-50l-97 125l-97 -125h-50
z" />
    <glyph glyph-name="Otilde" unicode="&#xd5;" horiz-adv-x="824" 
d="M47 362q0 157 105 265t260 108t260 -108t105 -265t-105 -265t-260 -108t-260 108t-105 265zM108 362q0 -133 86.5 -224.5t217.5 -91.5t217.5 91.5t86.5 224.5t-86.5 224.5t-217.5 91.5t-217.5 -91.5t-86.5 -224.5zM406 856q-43 26 -66 26q-44 0 -78 -52l-2 1v56
q29 44 79 44q32 0 79 -27q43 -26 66 -26q44 0 78 52l2 -1v-56q-29 -44 -79 -44q-35 0 -79 27z" />
    <glyph glyph-name="Odieresis" unicode="&#xd6;" horiz-adv-x="824" 
d="M47 362q0 157 105 265t260 108t260 -108t105 -265t-105 -265t-260 -108t-260 108t-105 265zM108 362q0 -133 86.5 -224.5t217.5 -91.5t217.5 91.5t86.5 224.5t-86.5 224.5t-217.5 91.5t-217.5 -91.5t-86.5 -224.5zM504 836q-17 0 -29 12t-12 29t12 29t29 12t29 -12
t12 -29t-12 -29t-29 -12zM320 836q-17 0 -29 12t-12 29t12 29t29 12t29 -12t12 -29t-12 -29t-29 -12z" />
    <glyph glyph-name="multiply" unicode="&#xd7;" horiz-adv-x="583" 
d="M122 159l-33 33l169 170l-169 170l33 33l169 -170l170 170l33 -33l-170 -170l170 -170l-33 -33l-170 170z" />
    <glyph glyph-name="Oslash" unicode="&#xd8;" horiz-adv-x="824" 
d="M412 -11q-124 0 -221 73l-63 -75l-39 33l64 76q-106 108 -106 266q0 157 105 265t260 108q124 0 221 -73l63 75l39 -33l-64 -76q106 -108 106 -266q0 -157 -105 -265t-260 -108zM108 362q0 -130 83 -221l404 477q-79 60 -183 60q-131 0 -217.5 -91.5t-86.5 -224.5z
M716 362q0 130 -83 221l-404 -477q79 -60 183 -60q131 0 217.5 91.5t86.5 224.5z" />
    <glyph glyph-name="Ugrave" unicode="&#xd9;" horiz-adv-x="723" 
d="M144 80q-36 45 -49.5 108t-13.5 156v380h61v-375q0 -167 50 -231q56 -72 172 -72q127 0 180 85q39 62 39 216v377h59v-374q0 -93 -11 -152.5t-40 -103.5q-71 -105 -230 -105q-145 0 -217 91zM367 795l-105 164h65l86 -164h-46z" />
    <glyph glyph-name="Uacute" unicode="&#xda;" horiz-adv-x="723" 
d="M144 80q-36 45 -49.5 108t-13.5 156v380h61v-375q0 -167 50 -231q56 -72 172 -72q127 0 180 85q39 62 39 216v377h59v-374q0 -93 -11 -152.5t-40 -103.5q-71 -105 -230 -105q-145 0 -217 91zM462 959l-105 -164h-46l86 164h65z" />
    <glyph glyph-name="Ucircumflex" unicode="&#xdb;" horiz-adv-x="723" 
d="M144 80q-36 45 -49.5 108t-13.5 156v380h61v-375q0 -167 50 -231q56 -72 172 -72q127 0 180 85q39 62 39 216v377h59v-374q0 -93 -11 -152.5t-40 -103.5q-71 -105 -230 -105q-145 0 -217 91zM215 795l116 164h62l116 -164h-50l-97 125l-97 -125h-50z" />
    <glyph glyph-name="Udieresis" unicode="&#xdc;" horiz-adv-x="723" 
d="M144 80q-36 45 -49.5 108t-13.5 156v380h61v-375q0 -167 50 -231q56 -72 172 -72q127 0 180 85q39 62 39 216v377h59v-374q0 -93 -11 -152.5t-40 -103.5q-71 -105 -230 -105q-145 0 -217 91zM454 836q-17 0 -29 12t-12 29t12 29t29 12t29 -12t12 -29t-12 -29t-29 -12z
M270 836q-17 0 -29 12t-12 29t12 29t29 12t29 -12t12 -29t-12 -29t-29 -12z" />
    <glyph glyph-name="Yacute" unicode="&#xdd;" horiz-adv-x="644" 
d="M447 559l116 165h69l-279 -396v-328h-61v327l-280 397h71l116 -165q61 -87 123 -177h2q39 57 123 177zM424 959l-105 -164h-46l86 164h65z" />
    <glyph glyph-name="Thorn" unicode="&#xde;" horiz-adv-x="617" 
d="M90 0v724h61v-149h128q140 0 212 -46q88 -58 88 -165q0 -108 -85 -165q-69 -46 -226 -46h-117v-153h-61zM151 207h124q131 0 183 37q59 41 59 119q0 79 -64 120q-56 36 -178 36h-124v-312z" />
    <glyph glyph-name="germandbls" unicode="&#xdf;" horiz-adv-x="615" 
d="M87 0v591q0 90 53 137t153 47t154 -46q52 -45 52 -131q0 -50 -16 -96q-74 -4 -121 -21q-34 -13 -52.5 -33t-18.5 -55q0 -38 25 -56.5t98 -44.5q37 -13 58 -23t46.5 -28t37.5 -43.5t12 -59.5q0 -70 -49 -109t-128 -39q-90 0 -153 40v68q70 -55 158 -55q49 0 80.5 24
t31.5 69q0 42 -28.5 62t-105.5 47q-70 24 -106 54.5t-36 88.5q0 88 81 128q48 24 123 32q5 22 5 48q0 60 -36 93q-35 32 -112 32q-76 0 -112 -33q-35 -33 -35 -98v-590h-59z" />
    <glyph glyph-name="agrave" unicode="&#xe0;" horiz-adv-x="529" 
d="M218 -11q-71 0 -116 34q-51 38 -51 106q0 73 62 114q51 33 135 33q60 0 127 -18v57q0 71 -36 103q-36 31 -101 31q-85 0 -151 -48v59q70 44 157 44q89 0 140 -43q50 -42 50 -132v-213q0 -73 50 -73q18 0 32 8v-51q-18 -8 -43 -8q-68 0 -89 58h-2q-71 -61 -164 -61z
M226 42q82 0 149 58v111q-62 18 -122 18t-101 -22.5t-41 -72.5q0 -45 33 -68.5t82 -23.5zM266 563l-105 164h65l86 -164h-46z" />
    <glyph glyph-name="aacute" unicode="&#xe1;" horiz-adv-x="529" 
d="M218 -11q-71 0 -116 34q-51 38 -51 106q0 73 62 114q51 33 135 33q60 0 127 -18v57q0 71 -36 103q-36 31 -101 31q-85 0 -151 -48v59q70 44 157 44q89 0 140 -43q50 -42 50 -132v-213q0 -73 50 -73q18 0 32 8v-51q-18 -8 -43 -8q-68 0 -89 58h-2q-71 -61 -164 -61z
M226 42q82 0 149 58v111q-62 18 -122 18t-101 -22.5t-41 -72.5q0 -45 33 -68.5t82 -23.5zM361 727l-105 -164h-46l86 164h65z" />
    <glyph glyph-name="acircumflex" unicode="&#xe2;" horiz-adv-x="529" 
d="M218 -11q-71 0 -116 34q-51 38 -51 106q0 73 62 114q51 33 135 33q60 0 127 -18v57q0 71 -36 103q-36 31 -101 31q-85 0 -151 -48v59q70 44 157 44q89 0 140 -43q50 -42 50 -132v-213q0 -73 50 -73q18 0 32 8v-51q-18 -8 -43 -8q-68 0 -89 58h-2q-71 -61 -164 -61z
M226 42q82 0 149 58v111q-62 18 -122 18t-101 -22.5t-41 -72.5q0 -45 33 -68.5t82 -23.5zM114 563l116 164h62l116 -164h-50l-97 125l-97 -125h-50z" />
    <glyph glyph-name="atilde" unicode="&#xe3;" horiz-adv-x="529" 
d="M218 -11q-71 0 -116 34q-51 38 -51 106q0 73 62 114q51 33 135 33q60 0 127 -18v57q0 71 -36 103q-36 31 -101 31q-85 0 -151 -48v59q70 44 157 44q89 0 140 -43q50 -42 50 -132v-213q0 -73 50 -73q18 0 32 8v-51q-18 -8 -43 -8q-68 0 -89 58h-2q-71 -61 -164 -61z
M226 42q82 0 149 58v111q-62 18 -122 18t-101 -22.5t-41 -72.5q0 -45 33 -68.5t82 -23.5zM255 624q-43 26 -66 26q-44 0 -78 -52l-2 1v56q29 44 79 44q32 0 79 -27q43 -26 66 -26q44 0 78 52l2 -1v-56q-29 -44 -79 -44q-35 0 -79 27z" />
    <glyph glyph-name="adieresis" unicode="&#xe4;" horiz-adv-x="529" 
d="M218 -11q-71 0 -116 34q-51 38 -51 106q0 73 62 114q51 33 135 33q60 0 127 -18v57q0 71 -36 103q-36 31 -101 31q-85 0 -151 -48v59q70 44 157 44q89 0 140 -43q50 -42 50 -132v-213q0 -73 50 -73q18 0 32 8v-51q-18 -8 -43 -8q-68 0 -89 58h-2q-71 -61 -164 -61z
M226 42q82 0 149 58v111q-62 18 -122 18t-101 -22.5t-41 -72.5q0 -45 33 -68.5t82 -23.5zM353 604q-17 0 -29 12t-12 29t12 29t29 12t29 -12t12 -29t-12 -29t-29 -12zM169 604q-17 0 -29 12t-12 29t12 29t29 12t29 -12t12 -29t-12 -29t-29 -12z" />
    <glyph glyph-name="aring" unicode="&#xe5;" horiz-adv-x="529" 
d="M218 -11q-71 0 -116 34q-51 38 -51 106q0 73 62 114q51 33 135 33q60 0 127 -18v57q0 71 -36 103q-36 31 -101 31q-85 0 -151 -48v59q70 44 157 44q89 0 140 -43q50 -42 50 -132v-213q0 -73 50 -73q18 0 32 8v-51q-18 -8 -43 -8q-68 0 -89 58h-2q-71 -61 -164 -61z
M226 42q82 0 149 58v111q-62 18 -122 18t-101 -22.5t-41 -72.5q0 -45 33 -68.5t82 -23.5zM149 665q0 47 32 79t80 32t80 -32t32 -79t-32 -79t-80 -32t-80 32t-32 79zM187 665q0 -32 20.5 -53.5t53.5 -21.5t53.5 21.5t20.5 53.5t-20.5 53.5t-53.5 21.5t-53.5 -21.5
t-20.5 -53.5z" />
    <glyph glyph-name="ae" unicode="&#xe6;" horiz-adv-x="877" 
d="M240 503q39 0 72.5 -9t62 -32.5t40.5 -60.5h2q30 47 81 74.5t111 27.5q91 0 152.5 -62.5t61.5 -168.5q0 -20 -2 -42h-394q7 -86 63 -137t142 -51t162 57v-64q-72 -46 -167 -46q-58 0 -113.5 23t-92.5 71q-94 -94 -203 -94q-71 0 -115 34q-52 38 -52 106q0 74 61 114
q50 33 136 33q58 0 120 -16v55q0 71 -35 103q-36 31 -99 31q-82 0 -147 -48v58q69 44 153 44zM607 450q-66 0 -118.5 -45.5t-61.5 -125.5h339q0 80 -47.5 125.5t-111.5 45.5zM398 120q-22 43 -27 91q-61 18 -118 18q-60 0 -101.5 -23t-41.5 -73q0 -45 33.5 -68t81.5 -23
q98 0 173 78z" />
    <glyph glyph-name="ccedilla" unicode="&#xe7;" horiz-adv-x="514" 
d="M255 -81l21 72q-100 10 -163 81t-63 172q0 112 75 185.5t190 73.5q72 0 134 -32v-62q-65 40 -136 40q-90 0 -147 -58.5t-57 -146.5t57.5 -144.5t146.5 -56.5q84 0 144 47v-64q-63 -37 -146 -37l-12 -39q92 -18 92 -87q0 -38 -26.5 -61t-70.5 -23q-40 0 -76 18l11 36
q36 -18 65 -18q24 0 39.5 12t15.5 33q0 51 -94 59z" />
    <glyph glyph-name="egrave" unicode="&#xe8;" horiz-adv-x="566" 
d="M510 230h-401q7 -86 64 -137t145 -51q87 0 165 57v-64q-74 -46 -169 -46q-114 0 -188.5 71.5t-74.5 185.5q0 112 70.5 184.5t172.5 72.5q93 0 155.5 -62.5t62.5 -168.5q0 -18 -2 -42zM292 450q-66 0 -118 -45t-63 -126h343q-2 89 -51.5 130t-110.5 41zM293 563l-105 164
h65l86 -164h-46z" />
    <glyph glyph-name="eacute" unicode="&#xe9;" horiz-adv-x="566" 
d="M510 230h-401q7 -86 64 -137t145 -51q87 0 165 57v-64q-74 -46 -169 -46q-114 0 -188.5 71.5t-74.5 185.5q0 112 70.5 184.5t172.5 72.5q93 0 155.5 -62.5t62.5 -168.5q0 -18 -2 -42zM292 450q-66 0 -118 -45t-63 -126h343q-2 89 -51.5 130t-110.5 41zM388 727l-105 -164
h-46l86 164h65z" />
    <glyph glyph-name="ecircumflex" unicode="&#xea;" horiz-adv-x="566" 
d="M510 230h-401q7 -86 64 -137t145 -51q87 0 165 57v-64q-74 -46 -169 -46q-114 0 -188.5 71.5t-74.5 185.5q0 112 70.5 184.5t172.5 72.5q93 0 155.5 -62.5t62.5 -168.5q0 -18 -2 -42zM292 450q-66 0 -118 -45t-63 -126h343q-2 89 -51.5 130t-110.5 41zM141 563l116 164
h62l116 -164h-50l-97 125l-97 -125h-50z" />
    <glyph glyph-name="edieresis" unicode="&#xeb;" horiz-adv-x="566" 
d="M510 230h-401q7 -86 64 -137t145 -51q87 0 165 57v-64q-74 -46 -169 -46q-114 0 -188.5 71.5t-74.5 185.5q0 112 70.5 184.5t172.5 72.5q93 0 155.5 -62.5t62.5 -168.5q0 -18 -2 -42zM292 450q-66 0 -118 -45t-63 -126h343q-2 89 -51.5 130t-110.5 41zM380 604
q-17 0 -29 12t-12 29t12 29t29 12t29 -12t12 -29t-12 -29t-29 -12zM196 604q-17 0 -29 12t-12 29t12 29t29 12t29 -12t12 -29t-12 -29t-29 -12z" />
    <glyph glyph-name="igrave" unicode="&#xec;" horiz-adv-x="233" 
d="M87 0v492h59v-492h-59zM121 563l-105 164h65l86 -164h-46z" />
    <glyph glyph-name="iacute" unicode="&#xed;" horiz-adv-x="233" 
d="M87 0v492h59v-492h-59zM216 727l-105 -164h-46l86 164h65z" />
    <glyph glyph-name="icircumflex" unicode="&#xee;" horiz-adv-x="233" 
d="M87 0v492h59v-492h-59zM-31 563l116 164h62l116 -164h-50l-97 125l-97 -125h-50z" />
    <glyph glyph-name="idieresis" unicode="&#xef;" horiz-adv-x="233" 
d="M87 0v492h59v-492h-59zM208 604q-17 0 -29 12t-12 29t12 29t29 12t29 -12t12 -29t-12 -29t-29 -12zM24 604q-17 0 -29 12t-12 29t12 29t29 12t29 -12t12 -29t-12 -29t-29 -12z" />
    <glyph glyph-name="eth" unicode="&#xf0;" horiz-adv-x="583" 
d="M167 546l-11 46l124 47q-50 40 -117 71l35 40q79 -38 139 -89l100 38l12 -46l-73 -28q80 -80 121.5 -179t41.5 -192q0 -127 -72 -196t-178 -69q-109 0 -177.5 70.5t-68.5 177.5t68 177t176 70q95 0 158 -60l2 1q-43 100 -126 179zM102 239q0 -85 52.5 -140.5t136.5 -55.5
q86 0 138 58t52 142q0 88 -56 139t-136 51q-83 0 -135 -54.5t-52 -139.5z" />
    <glyph glyph-name="ntilde" unicode="&#xf1;" 
d="M87 0v492h59v-69l2 -1q88 81 189 81q79 0 126 -50q44 -47 44 -147v-306h-59v295q0 84 -31 118q-32 35 -92 35q-96 0 -179 -88v-360h-59zM290 624q-43 26 -66 26q-44 0 -78 -52l-2 1v56q29 44 79 44q32 0 79 -27q43 -26 66 -26q44 0 78 52l2 -1v-56q-29 -44 -79 -44
q-35 0 -79 27z" />
    <glyph glyph-name="ograve" unicode="&#xf2;" horiz-adv-x="610" 
d="M50 246q0 109 72.5 183t182.5 74t182.5 -74t72.5 -183t-72.5 -183t-182.5 -74t-182.5 74t-72.5 183zM109 246q0 -87 56 -145t140 -58t140 58t56 145t-56 145t-140 58t-140 -58t-56 -145zM310 563l-105 164h65l86 -164h-46z" />
    <glyph glyph-name="oacute" unicode="&#xf3;" horiz-adv-x="610" 
d="M50 246q0 109 72.5 183t182.5 74t182.5 -74t72.5 -183t-72.5 -183t-182.5 -74t-182.5 74t-72.5 183zM109 246q0 -87 56 -145t140 -58t140 58t56 145t-56 145t-140 58t-140 -58t-56 -145zM405 727l-105 -164h-46l86 164h65z" />
    <glyph glyph-name="ocircumflex" unicode="&#xf4;" horiz-adv-x="610" 
d="M50 246q0 109 72.5 183t182.5 74t182.5 -74t72.5 -183t-72.5 -183t-182.5 -74t-182.5 74t-72.5 183zM109 246q0 -87 56 -145t140 -58t140 58t56 145t-56 145t-140 58t-140 -58t-56 -145zM158 563l116 164h62l116 -164h-50l-97 125l-97 -125h-50z" />
    <glyph glyph-name="otilde" unicode="&#xf5;" horiz-adv-x="610" 
d="M50 246q0 109 72.5 183t182.5 74t182.5 -74t72.5 -183t-72.5 -183t-182.5 -74t-182.5 74t-72.5 183zM109 246q0 -87 56 -145t140 -58t140 58t56 145t-56 145t-140 58t-140 -58t-56 -145zM299 624q-43 26 -66 26q-44 0 -78 -52l-2 1v56q29 44 79 44q32 0 79 -27
q43 -26 66 -26q44 0 78 52l2 -1v-56q-29 -44 -79 -44q-35 0 -79 27z" />
    <glyph glyph-name="odieresis" unicode="&#xf6;" horiz-adv-x="610" 
d="M50 246q0 109 72.5 183t182.5 74t182.5 -74t72.5 -183t-72.5 -183t-182.5 -74t-182.5 74t-72.5 183zM109 246q0 -87 56 -145t140 -58t140 58t56 145t-56 145t-140 58t-140 -58t-56 -145zM397 604q-17 0 -29 12t-12 29t12 29t29 12t29 -12t12 -29t-12 -29t-29 -12z
M213 604q-17 0 -29 12t-12 29t12 29t29 12t29 -12t12 -29t-12 -29t-29 -12z" />
    <glyph glyph-name="divide" unicode="&#xf7;" horiz-adv-x="583" 
d="M247 581q0 19 13 32t32 13t32 -13t13 -32t-13 -32t-32 -13t-32 13t-13 32zM54 338v48h476v-48h-476zM247 144q0 19 13 32t32 13t32 -13t13 -32t-13 -32t-32 -13t-32 13t-13 32z" />
    <glyph glyph-name="oslash" unicode="&#xf8;" horiz-adv-x="610" 
d="M305 -11q-86 0 -150 47l-46 -54l-34 28l46 54q-71 74 -71 182q0 109 72.5 183t182.5 74q86 0 150 -47l46 54l34 -28l-46 -54q71 -74 71 -182q0 -109 -72.5 -183t-182.5 -74zM109 246q0 -80 50 -138l260 306q-49 35 -114 35q-84 0 -140 -58t-56 -145zM501 246
q0 80 -50 138l-260 -306q49 -35 114 -35q84 0 140 58t56 145z" />
    <glyph glyph-name="ugrave" unicode="&#xf9;" 
d="M128 41q-43 49 -43 154v297h59v-286q0 -91 31 -126q33 -37 93 -37q92 0 178 91v358h59v-492h-59v70l-2 1q-86 -82 -187 -82q-83 0 -129 52zM301 563l-105 164h65l86 -164h-46z" />
    <glyph glyph-name="uacute" unicode="&#xfa;" 
d="M128 41q-43 49 -43 154v297h59v-286q0 -91 31 -126q33 -37 93 -37q92 0 178 91v358h59v-492h-59v70l-2 1q-86 -82 -187 -82q-83 0 -129 52zM396 727l-105 -164h-46l86 164h65z" />
    <glyph glyph-name="ucircumflex" unicode="&#xfb;" 
d="M128 41q-43 49 -43 154v297h59v-286q0 -91 31 -126q33 -37 93 -37q92 0 178 91v358h59v-492h-59v70l-2 1q-86 -82 -187 -82q-83 0 -129 52zM149 563l116 164h62l116 -164h-50l-97 125l-97 -125h-50z" />
    <glyph glyph-name="udieresis" unicode="&#xfc;" 
d="M128 41q-43 49 -43 154v297h59v-286q0 -91 31 -126q33 -37 93 -37q92 0 178 91v358h59v-492h-59v70l-2 1q-86 -82 -187 -82q-83 0 -129 52zM388 604q-17 0 -29 12t-12 29t12 29t29 12t29 -12t12 -29t-12 -29t-29 -12zM204 604q-17 0 -29 12t-12 29t12 29t29 12t29 -12
t12 -29t-12 -29t-29 -12z" />
    <glyph glyph-name="yacute" unicode="&#xfd;" horiz-adv-x="540" 
d="M347 283l99 209h62l-340 -712h-63l133 273l-208 439h65l98 -208q39 -83 76 -164h2q44 94 76 163zM370 727l-105 -164h-46l86 164h65z" />
    <glyph glyph-name="thorn" unicode="&#xfe;" 
d="M87 -220v984h59v-315l2 -1q72 55 156 55q102 0 169.5 -71.5t67.5 -182.5q0 -113 -71 -186.5t-180 -73.5q-72 0 -142 37l-2 -1v-245h-59zM146 390v-305q67 -44 145 -44q86 0 138.5 58t52.5 147q0 88 -51.5 146t-134.5 58q-85 0 -150 -60z" />
    <glyph glyph-name="ydieresis" unicode="&#xff;" horiz-adv-x="540" 
d="M347 283l99 209h62l-340 -712h-63l133 273l-208 439h65l98 -208q39 -83 76 -164h2q44 94 76 163zM362 604q-17 0 -29 12t-12 29t12 29t29 12t29 -12t12 -29t-12 -29t-29 -12zM178 604q-17 0 -29 12t-12 29t12 29t29 12t29 -12t12 -29t-12 -29t-29 -12z" />
    <glyph glyph-name="Amacron" unicode="&#x100;" horiz-adv-x="684" 
d="M11 0l301 724h58l303 -724h-66l-89 216h-355l-89 -216h-63zM495 272l-73 179q-43 106 -80 199h-2q-38 -97 -80 -198l-74 -180h309zM210 854v46h264v-46h-264z" />
    <glyph glyph-name="amacron" unicode="&#x101;" horiz-adv-x="529" 
d="M218 -11q-71 0 -116 34q-51 38 -51 106q0 73 62 114q51 33 135 33q60 0 127 -18v57q0 71 -36 103q-36 31 -101 31q-85 0 -151 -48v59q70 44 157 44q89 0 140 -43q50 -42 50 -132v-213q0 -73 50 -73q18 0 32 8v-51q-18 -8 -43 -8q-68 0 -89 58h-2q-71 -61 -164 -61z
M226 42q82 0 149 58v111q-62 18 -122 18t-101 -22.5t-41 -72.5q0 -45 33 -68.5t82 -23.5zM129 622v46h264v-46h-264z" />
    <glyph glyph-name="Abreve" unicode="&#x102;" horiz-adv-x="684" 
d="M11 0l301 724h58l303 -724h-66l-89 216h-355l-89 -216h-63zM495 272l-73 179q-43 106 -80 199h-2q-38 -97 -80 -198l-74 -180h309zM342 805q-63 0 -96.5 40.5t-35.5 102.5h39q10 -104 93 -104t93 104h39q-2 -62 -35.5 -102.5t-96.5 -40.5z" />
    <glyph glyph-name="abreve" unicode="&#x103;" horiz-adv-x="529" 
d="M218 -11q-71 0 -116 34q-51 38 -51 106q0 73 62 114q51 33 135 33q60 0 127 -18v57q0 71 -36 103q-36 31 -101 31q-85 0 -151 -48v59q70 44 157 44q89 0 140 -43q50 -42 50 -132v-213q0 -73 50 -73q18 0 32 8v-51q-18 -8 -43 -8q-68 0 -89 58h-2q-71 -61 -164 -61z
M226 42q82 0 149 58v111q-62 18 -122 18t-101 -22.5t-41 -72.5q0 -45 33 -68.5t82 -23.5zM261 573q-63 0 -96.5 40.5t-35.5 102.5h39q10 -104 93 -104t93 104h39q-2 -62 -35.5 -102.5t-96.5 -40.5z" />
    <glyph glyph-name="Aogonek" unicode="&#x104;" horiz-adv-x="684" 
d="M11 0l301 724h58l303 -724q-41 -25 -68 -62t-27 -71q0 -26 15.5 -40t41.5 -14q20 0 38 6v-42q-21 -8 -47 -8q-46 0 -72.5 26t-26.5 67q0 75 78 142l-87 212h-355l-89 -216h-63zM495 272l-73 179q-43 106 -80 199h-2q-38 -97 -80 -198l-74 -180h309z" />
    <glyph glyph-name="aogonek" unicode="&#x105;" horiz-adv-x="529" 
d="M516 0q-58 -19 -93 -56.5t-35 -76.5q0 -26 15.5 -40t40.5 -14q21 0 39 6v-43q-23 -7 -47 -7q-46 0 -72.5 25.5t-26.5 65.5q0 39 25 76.5t67 62.5v2q-33 14 -45 49h-2q-71 -61 -164 -61q-71 0 -116 34q-51 38 -51 106q0 73 62 114q51 33 135 33q60 0 127 -18v57
q0 71 -36 103q-36 31 -101 31q-85 0 -151 -48v59q70 44 157 44q89 0 140 -43q50 -42 50 -132v-213q0 -73 50 -73q18 0 32 8v-51zM226 42q82 0 149 58v111q-62 18 -122 18t-101 -22.5t-41 -72.5q0 -45 33 -68.5t82 -23.5z" />
    <glyph glyph-name="Cacute" unicode="&#x106;" horiz-adv-x="684" 
d="M48 361q0 158 105 266t272 108q102 0 194 -46v-68q-86 57 -194 57q-140 0 -228 -90.5t-88 -225.5t89 -225.5t231 -90.5q113 0 203 63v-68q-87 -52 -206 -52q-166 0 -272 106.5t-106 265.5zM542 959l-105 -164h-46l86 164h65z" />
    <glyph glyph-name="cacute" unicode="&#x107;" horiz-adv-x="514" 
d="M50 244q0 112 75 185.5t190 73.5q72 0 134 -32v-62q-65 40 -136 40q-90 0 -147 -58.5t-57 -146.5t57.5 -144.5t146.5 -56.5q84 0 144 47v-64q-63 -37 -147 -37q-114 0 -187 72.5t-73 182.5zM423 727l-105 -164h-46l86 164h65z" />
    <glyph glyph-name="Ccircumflex" unicode="&#x108;" horiz-adv-x="684" 
d="M48 361q0 158 105 266t272 108q102 0 194 -46v-68q-86 57 -194 57q-140 0 -228 -90.5t-88 -225.5t89 -225.5t231 -90.5q113 0 203 63v-68q-87 -52 -206 -52q-166 0 -272 106.5t-106 265.5zM245 795l116 164h62l116 -164h-50l-97 125l-97 -125h-50z" />
    <glyph glyph-name="ccircumflex" unicode="&#x109;" horiz-adv-x="514" 
d="M50 244q0 112 75 185.5t190 73.5q72 0 134 -32v-62q-65 40 -136 40q-90 0 -147 -58.5t-57 -146.5t57.5 -144.5t146.5 -56.5q84 0 144 47v-64q-63 -37 -147 -37q-114 0 -187 72.5t-73 182.5zM143 563l116 164h62l116 -164h-50l-97 125l-97 -125h-50z" />
    <glyph glyph-name="Cdotaccent" unicode="&#x10a;" horiz-adv-x="684" 
d="M48 361q0 158 105 266t272 108q102 0 194 -46v-68q-86 57 -194 57q-140 0 -228 -90.5t-88 -225.5t89 -225.5t231 -90.5q113 0 203 63v-68q-87 -52 -206 -52q-166 0 -272 106.5t-106 265.5zM392 836q-17 0 -29 12t-12 29t12 29t29 12t29 -12t12 -29t-12 -29t-29 -12z" />
    <glyph glyph-name="cdotaccent" unicode="&#x10b;" horiz-adv-x="514" 
d="M50 244q0 112 75 185.5t190 73.5q72 0 134 -32v-62q-65 40 -136 40q-90 0 -147 -58.5t-57 -146.5t57.5 -144.5t146.5 -56.5q84 0 144 47v-64q-63 -37 -147 -37q-114 0 -187 72.5t-73 182.5zM290 604q-17 0 -29 12t-12 29t12 29t29 12t29 -12t12 -29t-12 -29t-29 -12z" />
    <glyph glyph-name="Ccaron" unicode="&#x10c;" horiz-adv-x="684" 
d="M48 361q0 158 105 266t272 108q102 0 194 -46v-68q-86 57 -194 57q-140 0 -228 -90.5t-88 -225.5t89 -225.5t231 -90.5q113 0 203 63v-68q-87 -52 -206 -52q-166 0 -272 106.5t-106 265.5zM539 959l-116 -164h-62l-116 164h50l97 -125l97 125h50z" />
    <glyph glyph-name="ccaron" unicode="&#x10d;" horiz-adv-x="514" 
d="M50 244q0 112 75 185.5t190 73.5q72 0 134 -32v-62q-65 40 -136 40q-90 0 -147 -58.5t-57 -146.5t57.5 -144.5t146.5 -56.5q84 0 144 47v-64q-63 -37 -147 -37q-114 0 -187 72.5t-73 182.5zM437 727l-116 -164h-62l-116 164h50l97 -125l97 125h50z" />
    <glyph glyph-name="Dcaron" unicode="&#x10e;" horiz-adv-x="737" 
d="M90 0v724h185q172 0 276 -74q67 -48 104.5 -123t37.5 -163q0 -84 -34 -156t-91 -119q-107 -89 -306 -89h-172zM151 56h119q165 0 254 72q50 41 79 102t29 132q0 75 -31 137.5t-84 102.5q-87 66 -248 66h-118v-612zM485 959l-116 -164h-62l-116 164h50l97 -125l97 125h50z
" />
    <glyph glyph-name="dcaron" unicode="&#x10f;" horiz-adv-x="674" 
d="M51 237q0 112 69.5 189t183.5 77q66 0 140 -35l2 1v295h59v-764h-59v46l-2 1q-65 -58 -158 -58q-100 0 -167.5 68.5t-67.5 179.5zM110 241q0 -87 50.5 -143t134.5 -56q89 0 151 62v306q-68 40 -140 40q-89 0 -142.5 -59.5t-53.5 -149.5zM631 764h58l-72 -218h-43z" />
    <glyph glyph-name="Dcroat" unicode="&#x110;" horiz-adv-x="746" 
d="M5 344v51h94v329h185q172 0 276 -74q67 -48 104.5 -123t37.5 -163q0 -84 -34 -156t-91 -119q-107 -89 -306 -89h-172v344h-94zM160 56h119q165 0 254 72q50 41 79 102t29 132q0 75 -31 137.5t-84 102.5q-87 66 -248 66h-118v-273h171v-51h-171v-288z" />
    <glyph glyph-name="dcroat" unicode="&#x111;" 
d="M258 598v49h188v117h59v-117h73v-49h-73v-598h-59v46l-2 1q-65 -58 -158 -58q-100 0 -167.5 68.5t-67.5 179.5q0 112 69.5 189t183.5 77q66 0 140 -35l2 1v129h-188zM110 241q0 -87 50.5 -143t134.5 -56q89 0 151 62v306q-68 40 -140 40q-89 0 -142.5 -59.5t-53.5 -149.5
z" />
    <glyph glyph-name="Emacron" unicode="&#x112;" horiz-adv-x="552" 
d="M90 0v724h401v-56h-340v-264h301v-56h-301v-292h349v-56h-410zM158 854v46h264v-46h-264z" />
    <glyph glyph-name="emacron" unicode="&#x113;" horiz-adv-x="566" 
d="M510 230h-401q7 -86 64 -137t145 -51q87 0 165 57v-64q-74 -46 -169 -46q-114 0 -188.5 71.5t-74.5 185.5q0 112 70.5 184.5t172.5 72.5q93 0 155.5 -62.5t62.5 -168.5q0 -18 -2 -42zM292 450q-66 0 -118 -45t-63 -126h343q-2 89 -51.5 130t-110.5 41zM156 622v46h264
v-46h-264z" />
    <glyph glyph-name="Ebreve" unicode="&#x114;" horiz-adv-x="552" 
d="M90 0v724h401v-56h-340v-264h301v-56h-301v-292h349v-56h-410zM290 805q-63 0 -96.5 40.5t-35.5 102.5h39q10 -104 93 -104t93 104h39q-2 -62 -35.5 -102.5t-96.5 -40.5z" />
    <glyph glyph-name="ebreve" unicode="&#x115;" horiz-adv-x="566" 
d="M510 230h-401q7 -86 64 -137t145 -51q87 0 165 57v-64q-74 -46 -169 -46q-114 0 -188.5 71.5t-74.5 185.5q0 112 70.5 184.5t172.5 72.5q93 0 155.5 -62.5t62.5 -168.5q0 -18 -2 -42zM292 450q-66 0 -118 -45t-63 -126h343q-2 89 -51.5 130t-110.5 41zM288 573
q-63 0 -96.5 40.5t-35.5 102.5h39q10 -104 93 -104t93 104h39q-2 -62 -35.5 -102.5t-96.5 -40.5z" />
    <glyph glyph-name="Edotaccent" unicode="&#x116;" horiz-adv-x="552" 
d="M90 0v724h401v-56h-340v-264h301v-56h-301v-292h349v-56h-410zM290 836q-17 0 -29 12t-12 29t12 29t29 12t29 -12t12 -29t-12 -29t-29 -12z" />
    <glyph glyph-name="edotaccent" unicode="&#x117;" horiz-adv-x="566" 
d="M510 230h-401q7 -86 64 -137t145 -51q87 0 165 57v-64q-74 -46 -169 -46q-114 0 -188.5 71.5t-74.5 185.5q0 112 70.5 184.5t172.5 72.5q93 0 155.5 -62.5t62.5 -168.5q0 -18 -2 -42zM292 450q-66 0 -118 -45t-63 -126h343q-2 89 -51.5 130t-110.5 41zM288 604
q-17 0 -29 12t-12 29t12 29t29 12t29 -12t12 -29t-12 -29t-29 -12z" />
    <glyph glyph-name="Eogonek" unicode="&#x118;" horiz-adv-x="552" 
d="M90 0v724h401v-56h-340v-264h301v-56h-301v-292h349v-56q-95 -64 -95 -132q0 -26 15.5 -40.5t40.5 -14.5q21 0 39 6v-42q-21 -8 -46 -8q-46 0 -73 25.5t-27 66.5q0 72 75 137l-1 2h-338z" />
    <glyph glyph-name="eogonek" unicode="&#x119;" horiz-adv-x="566" 
d="M510 230h-401q7 -86 64 -137t145 -51q87 0 165 57v-64q-61 -42 -93 -86.5t-32 -79.5q0 -56 57 -56q20 0 38 6v-43q-23 -7 -46 -7q-46 0 -73 25.5t-27 66.5q0 64 64 132l-1 1q-30 -5 -56 -5q-114 0 -188.5 71.5t-74.5 185.5q0 112 70.5 184.5t172.5 72.5q93 0 155.5 -62.5
t62.5 -168.5q0 -18 -2 -42zM292 450q-66 0 -118 -45t-63 -126h343q-2 89 -51.5 130t-110.5 41z" />
    <glyph glyph-name="Ecaron" unicode="&#x11a;" horiz-adv-x="552" 
d="M90 0v724h401v-56h-340v-264h301v-56h-301v-292h349v-56h-410zM437 959l-116 -164h-62l-116 164h50l97 -125l97 125h50z" />
    <glyph glyph-name="ecaron" unicode="&#x11b;" horiz-adv-x="566" 
d="M510 230h-401q7 -86 64 -137t145 -51q87 0 165 57v-64q-74 -46 -169 -46q-114 0 -188.5 71.5t-74.5 185.5q0 112 70.5 184.5t172.5 72.5q93 0 155.5 -62.5t62.5 -168.5q0 -18 -2 -42zM292 450q-66 0 -118 -45t-63 -126h343q-2 89 -51.5 130t-110.5 41zM435 727l-116 -164
h-62l-116 164h50l97 -125l97 125h50z" />
    <glyph glyph-name="Gcircumflex" unicode="&#x11c;" horiz-adv-x="736" 
d="M48 361q0 160 106 267t273 107q116 0 213 -56v-70q-94 69 -215 69q-140 0 -228 -90.5t-88 -225.5q0 -134 87.5 -225.5t229.5 -91.5q99 0 174 43v203h-184v56h245v-290q-104 -68 -240 -68q-161 0 -267 106.5t-106 265.5zM259 795l116 164h62l116 -164h-50l-97 125
l-97 -125h-50z" />
    <glyph glyph-name="gcircumflex" unicode="&#x11d;" horiz-adv-x="589" 
d="M113 -193v63q74 -47 152 -47q82 0 130 47t48 129v54l-2 1q-63 -55 -154 -55q-101 0 -168.5 69t-67.5 176q0 108 67.5 184t181.5 76q74 0 145 -38l57 10v-476q0 -105 -63 -168t-174 -63q-83 0 -152 38zM111 248q0 -85 51 -140.5t133 -55.5q90 0 148 60v296q-64 42 -144 42
q-85 0 -136.5 -57.5t-51.5 -144.5zM152 563l116 164h62l116 -164h-50l-97 125l-97 -125h-50z" />
    <glyph glyph-name="Gbreve" unicode="&#x11e;" horiz-adv-x="736" 
d="M48 361q0 160 106 267t273 107q116 0 213 -56v-70q-94 69 -215 69q-140 0 -228 -90.5t-88 -225.5q0 -134 87.5 -225.5t229.5 -91.5q99 0 174 43v203h-184v56h245v-290q-104 -68 -240 -68q-161 0 -267 106.5t-106 265.5zM406 805q-63 0 -96.5 40.5t-35.5 102.5h39
q10 -104 93 -104t93 104h39q-2 -62 -35.5 -102.5t-96.5 -40.5z" />
    <glyph glyph-name="gbreve" unicode="&#x11f;" horiz-adv-x="589" 
d="M113 -193v63q74 -47 152 -47q82 0 130 47t48 129v54l-2 1q-63 -55 -154 -55q-101 0 -168.5 69t-67.5 176q0 108 67.5 184t181.5 76q74 0 145 -38l57 10v-476q0 -105 -63 -168t-174 -63q-83 0 -152 38zM111 248q0 -85 51 -140.5t133 -55.5q90 0 148 60v296q-64 42 -144 42
q-85 0 -136.5 -57.5t-51.5 -144.5zM299 573q-63 0 -96.5 40.5t-35.5 102.5h39q10 -104 93 -104t93 104h39q-2 -62 -35.5 -102.5t-96.5 -40.5z" />
    <glyph glyph-name="Gdotaccent" unicode="&#x120;" horiz-adv-x="736" 
d="M48 361q0 160 106 267t273 107q116 0 213 -56v-70q-94 69 -215 69q-140 0 -228 -90.5t-88 -225.5q0 -134 87.5 -225.5t229.5 -91.5q99 0 174 43v203h-184v56h245v-290q-104 -68 -240 -68q-161 0 -267 106.5t-106 265.5zM406 836q-17 0 -29 12t-12 29t12 29t29 12t29 -12
t12 -29t-12 -29t-29 -12z" />
    <glyph glyph-name="gdotaccent" unicode="&#x121;" horiz-adv-x="589" 
d="M113 -193v63q74 -47 152 -47q82 0 130 47t48 129v54l-2 1q-63 -55 -154 -55q-101 0 -168.5 69t-67.5 176q0 108 67.5 184t181.5 76q74 0 145 -38l57 10v-476q0 -105 -63 -168t-174 -63q-83 0 -152 38zM111 248q0 -85 51 -140.5t133 -55.5q90 0 148 60v296q-64 42 -144 42
q-85 0 -136.5 -57.5t-51.5 -144.5zM299 604q-17 0 -29 12t-12 29t12 29t29 12t29 -12t12 -29t-12 -29t-29 -12z" />
    <glyph glyph-name="Gcommaaccent" unicode="&#x122;" horiz-adv-x="736" 
d="M48 361q0 160 106 267t273 107q116 0 213 -56v-70q-94 69 -215 69q-140 0 -228 -90.5t-88 -225.5q0 -134 87.5 -225.5t229.5 -91.5q99 0 174 43v203h-184v56h245v-290q-104 -68 -240 -68q-161 0 -267 106.5t-106 265.5zM405 -54h58l-72 -218h-43z" />
    <glyph glyph-name="gcommaaccent" unicode="&#x123;" horiz-adv-x="589" 
d="M113 -193v63q74 -47 152 -47q82 0 130 47t48 129v54l-2 1q-63 -55 -154 -55q-101 0 -168.5 69t-67.5 176q0 108 67.5 184t181.5 76q74 0 145 -38l57 10v-476q0 -105 -63 -168t-174 -63q-83 0 -152 38zM111 248q0 -85 51 -140.5t133 -55.5q90 0 148 60v296q-64 42 -144 42
q-85 0 -136.5 -57.5t-51.5 -144.5zM242 556l72 218h43l-57 -218h-58z" />
    <glyph glyph-name="Hcircumflex" unicode="&#x124;" horiz-adv-x="740" 
d="M90 0v724h61v-320h438v320h61v-724h-61v348h-438v-348h-61zM223 795l116 164h62l116 -164h-50l-97 125l-97 -125h-50z" />
    <glyph glyph-name="hcircumflex" unicode="&#x125;" horiz-adv-x="591" 
d="M87 0v764h59v-341l2 -1q86 81 189 81q79 0 126 -50q44 -47 44 -147v-306h-59v295q0 85 -32 118q-32 35 -89 35q-96 0 -181 -88v-360h-59zM-31 826l116 164h62l116 -164h-50l-97 125l-97 -125h-50z" />
    <glyph glyph-name="Hbar" unicode="&#x126;" horiz-adv-x="748" 
d="M8 538v51h86v135h61v-135h438v135h61v-135h86v-51h-86v-538h-61v348h-438v-348h-61v538h-86zM155 404h438v134h-438v-134z" />
    <glyph glyph-name="hbar" unicode="&#x127;" horiz-adv-x="591" 
d="M14 598v49h73v117h59v-117h188v-49h-188v-175l2 -1q86 81 189 81q79 0 126 -50q44 -47 44 -147v-306h-59v295q0 85 -32 118q-32 35 -89 35q-96 0 -181 -88v-360h-59v598h-73z" />
    <glyph glyph-name="Itilde" unicode="&#x128;" horiz-adv-x="241" 
d="M90 0v724h61v-724h-61zM114 856q-43 26 -66 26q-44 0 -78 -52l-2 1v56q29 44 79 44q32 0 79 -27q43 -26 66 -26q44 0 78 52l2 -1v-56q-29 -44 -79 -44q-35 0 -79 27z" />
    <glyph glyph-name="itilde" unicode="&#x129;" horiz-adv-x="233" 
d="M87 0v492h59v-492h-59zM110 624q-43 26 -66 26q-44 0 -78 -52l-2 1v56q29 44 79 44q32 0 79 -27q43 -26 66 -26q44 0 78 52l2 -1v-56q-29 -44 -79 -44q-35 0 -79 27z" />
    <glyph glyph-name="Imacron" unicode="&#x12a;" horiz-adv-x="241" 
d="M90 0v724h61v-724h-61zM-12 854v46h264v-46h-264z" />
    <glyph glyph-name="imacron" unicode="&#x12b;" horiz-adv-x="233" 
d="M87 0v492h59v-492h-59zM-16 622v46h264v-46h-264z" />
    <glyph glyph-name="Ibreve" unicode="&#x12c;" horiz-adv-x="241" 
d="M90 0v724h61v-724h-61zM120 805q-63 0 -96.5 40.5t-35.5 102.5h39q10 -104 93 -104t93 104h39q-2 -62 -35.5 -102.5t-96.5 -40.5z" />
    <glyph glyph-name="ibreve" unicode="&#x12d;" horiz-adv-x="233" 
d="M87 0v492h59v-492h-59zM116 573q-63 0 -96.5 40.5t-35.5 102.5h39q10 -104 93 -104t93 104h39q-2 -62 -35.5 -102.5t-96.5 -40.5z" />
    <glyph glyph-name="Iogonek" unicode="&#x12e;" horiz-adv-x="241" 
d="M90 0v724h61v-724q-69 -67 -69 -128q0 -59 55 -59q18 0 38 5v-42q-20 -7 -45 -7q-46 0 -72.5 26.5t-26.5 69.5q0 67 59 135z" />
    <glyph glyph-name="iogonek" unicode="&#x12f;" horiz-adv-x="233" 
d="M162 663q0 -19 -13.5 -32t-32.5 -13t-32 13.5t-13 32.5t13.5 32t32.5 13t32 -13.5t13 -32.5zM28 -135q0 63 59 135v492h59v-492q-67 -69 -67 -128t56 -59q17 0 37 5v-42q-25 -7 -44 -7q-46 0 -73 26.5t-27 69.5z" />
    <glyph glyph-name="Idotaccent" unicode="&#x130;" horiz-adv-x="241" 
d="M90 0v724h61v-724h-61zM120 836q-17 0 -29 12t-12 29t12 29t29 12t29 -12t12 -29t-12 -29t-29 -12z" />
    <glyph glyph-name="dotlessi" unicode="&#x131;" horiz-adv-x="233" 
d="M87 0v492h59v-492h-59z" />
    <glyph glyph-name="IJ" unicode="&#x132;" horiz-adv-x="637" 
d="M90 0v724h61v-724h-61zM486 196v528h61v-526q0 -112 -37 -158q-41 -51 -126 -51q-51 0 -105 22v59q55 -24 104 -24q62 0 82.5 37t20.5 113z" />
    <glyph glyph-name="ij" unicode="&#x133;" horiz-adv-x="468" 
d="M162 663q0 -19 -13.5 -32t-32.5 -13t-32 13.5t-13 32.5t13.5 32t32.5 13t32 -13.5t13 -32.5zM87 0v492h59v-492h-59zM306 664q0 19 13.5 32t32.5 13t32 -13.5t13 -32.5t-13.5 -32t-32.5 -13t-32 13.5t-13 32.5zM322 -71v563h59v-560q0 -85 -32 -122q-36 -41 -105 -41
q-26 0 -54 7v53q34 -6 53 -6q45 0 62 26.5t17 79.5z" />
    <glyph glyph-name="Jcircumflex" unicode="&#x134;" horiz-adv-x="396" 
d="M245 196v528h61v-526q0 -112 -37 -158q-41 -51 -126 -51q-51 0 -105 22v59q56 -24 104 -24q62 0 82.5 37t20.5 113zM128 795l116 164h62l116 -164h-50l-97 125l-97 -125h-50z" />
    <glyph glyph-name="jcircumflex" unicode="&#x135;" horiz-adv-x="235" 
d="M89 -71v563h59v-560q0 -85 -32 -122q-36 -41 -105 -41q-26 0 -54 7v53q34 -6 53 -6q45 0 62 26.5t17 79.5zM-28 563l116 164h62l116 -164h-50l-97 125l-97 -125h-50z" />
    <glyph glyph-name="Kcommaaccent" unicode="&#x136;" horiz-adv-x="614" 
d="M90 0v724h61v-330l2 -1l350 331h77l-356 -335l386 -389h-82l-375 379l-2 -1v-378h-61zM306 -54h58l-72 -218h-43z" />
    <glyph glyph-name="kcommaaccent" unicode="&#x137;" horiz-adv-x="505" 
d="M87 0v764h59v-489l1 -1l249 218h76l-252 -220l278 -272h-79l-272 268l-1 -1v-267h-59zM251 -54h58l-72 -218h-43z" />
    <glyph glyph-name="kgreenlandic" unicode="&#x138;" horiz-adv-x="505" 
d="M87 0v492h59v-217l1 -1l249 218h76l-252 -220l278 -272h-79l-272 268l-1 -1v-267h-59z" />
    <glyph glyph-name="Lacute" unicode="&#x139;" horiz-adv-x="548" 
d="M90 0v724h61v-668h359v-56h-420zM244 959l-105 -164h-46l86 164h65z" />
    <glyph glyph-name="lacute" unicode="&#x13a;" horiz-adv-x="233" 
d="M87 0v764h59v-764h-59zM216 990l-105 -164h-46l86 164h65z" />
    <glyph glyph-name="Lcommaaccent" unicode="&#x13b;" horiz-adv-x="548" 
d="M90 0v724h61v-668h359v-56h-420zM293 -54h58l-72 -218h-43z" />
    <glyph glyph-name="lcommaaccent" unicode="&#x13c;" horiz-adv-x="233" 
d="M87 0v764h59v-764h-59zM115 -54h58l-72 -218h-43z" />
    <glyph glyph-name="Lcaron" unicode="&#x13d;" horiz-adv-x="548" 
d="M90 0v724h61v-668h359v-56h-420zM264 519l57 261h59l-75 -261h-41z" />
    <glyph glyph-name="lcaron" unicode="&#x13e;" horiz-adv-x="315" 
d="M87 0v764h59v-764h-59zM272 764h58l-72 -218h-43z" />
    <glyph glyph-name="Ldot" unicode="&#x13f;" horiz-adv-x="548" 
d="M90 0v724h61v-668h359v-56h-420zM343 378q0 21 14.5 35.5t35.5 14.5t35.5 -14.5t14.5 -35.5t-14.5 -35.5t-35.5 -14.5t-35.5 14.5t-14.5 35.5z" />
    <glyph glyph-name="ldot" unicode="&#x140;" horiz-adv-x="316" 
d="M87 0v764h59v-764h-59zM273 288q-17 0 -29 12t-12 29t12 29t29 12t29 -12t12 -29t-12 -29t-29 -12z" />
    <glyph glyph-name="Lslash" unicode="&#x141;" horiz-adv-x="552" 
d="M94 0v292l-97 -66v60l97 66v372h61v-331l131 89v-60l-131 -89v-277h359v-56h-420z" />
    <glyph glyph-name="lslash" unicode="&#x142;" horiz-adv-x="243" 
d="M92 0v313l-86 -59v58l86 59v393h59v-354l86 59v-58l-86 -59v-352h-59z" />
    <glyph glyph-name="Nacute" unicode="&#x143;" horiz-adv-x="765" 
d="M149 0h-59v724h58l331 -441q62 -83 136 -184l2 1q-1 70 -1 217v407h59v-724h-58l-331 441q-62 83 -136 184l-2 -1q1 -70 1 -217v-407zM482 959l-105 -164h-46l86 164h65z" />
    <glyph glyph-name="nacute" unicode="&#x144;" 
d="M87 0v492h59v-69l2 -1q88 81 189 81q79 0 126 -50q44 -47 44 -147v-306h-59v295q0 84 -31 118q-32 35 -92 35q-96 0 -179 -88v-360h-59zM396 727l-105 -164h-46l86 164h65z" />
    <glyph glyph-name="Ncommaaccent" unicode="&#x145;" horiz-adv-x="765" 
d="M149 0h-59v724h58l331 -441q62 -83 136 -184l2 1q-1 70 -1 217v407h59v-724h-58l-331 441q-62 83 -136 184l-2 -1q1 -70 1 -217v-407zM381 -54h58l-72 -218h-43z" />
    <glyph glyph-name="ncommaaccent" unicode="&#x146;" 
d="M87 0v492h59v-69l2 -1q88 81 189 81q79 0 126 -50q44 -47 44 -147v-306h-59v295q0 84 -31 118q-32 35 -92 35q-96 0 -179 -88v-360h-59zM295 -54h58l-72 -218h-43z" />
    <glyph glyph-name="Ncaron" unicode="&#x147;" horiz-adv-x="765" 
d="M149 0h-59v724h58l331 -441q62 -83 136 -184l2 1q-1 70 -1 217v407h59v-724h-58l-331 441q-62 83 -136 184l-2 -1q1 -70 1 -217v-407zM529 959l-116 -164h-62l-116 164h50l97 -125l97 125h50z" />
    <glyph glyph-name="ncaron" unicode="&#x148;" 
d="M87 0v492h59v-69l2 -1q88 81 189 81q79 0 126 -50q44 -47 44 -147v-306h-59v295q0 84 -31 118q-32 35 -92 35q-96 0 -179 -88v-360h-59zM443 727l-116 -164h-62l-116 164h50l97 -125l97 125h50z" />
    <glyph glyph-name="napostrophe" unicode="&#x149;" 
d="M87 0v492h59v-69l2 -1q88 81 189 81q79 0 126 -50q44 -47 44 -147v-306h-59v295q0 84 -31 118q-32 35 -92 35q-96 0 -179 -88v-360h-59zM128 772h58l-72 -218h-43z" />
    <glyph glyph-name="Eng" unicode="&#x14a;" horiz-adv-x="765" 
d="M614 -24v28l-328 437q-62 83 -136 184l-2 -1q1 -70 1 -217v-407h-59v724h58l331 -441q62 -83 136 -184l2 1q-1 70 -1 217v407h59v-746q0 -112 -37 -158q-41 -51 -126 -51q-51 0 -105 22v59q55 -24 104 -24q62 0 82.5 37t20.5 113z" />
    <glyph glyph-name="eng" unicode="&#x14b;" 
d="M448 -71v366q0 84 -31 118q-32 35 -92 35q-96 0 -179 -88v-360h-59v492h59v-69l2 -1q88 81 189 81q79 0 126 -50q44 -47 44 -147v-374q0 -85 -32 -122q-36 -41 -105 -41q-26 0 -54 7v53q34 -6 53 -6q45 0 62 26.5t17 79.5z" />
    <glyph glyph-name="Omacron" unicode="&#x14c;" horiz-adv-x="824" 
d="M47 362q0 157 105 265t260 108t260 -108t105 -265t-105 -265t-260 -108t-260 108t-105 265zM108 362q0 -133 86.5 -224.5t217.5 -91.5t217.5 91.5t86.5 224.5t-86.5 224.5t-217.5 91.5t-217.5 -91.5t-86.5 -224.5zM280 854v46h264v-46h-264z" />
    <glyph glyph-name="omacron" unicode="&#x14d;" horiz-adv-x="610" 
d="M50 246q0 109 72.5 183t182.5 74t182.5 -74t72.5 -183t-72.5 -183t-182.5 -74t-182.5 74t-72.5 183zM109 246q0 -87 56 -145t140 -58t140 58t56 145t-56 145t-140 58t-140 -58t-56 -145zM173 622v46h264v-46h-264z" />
    <glyph glyph-name="Obreve" unicode="&#x14e;" horiz-adv-x="824" 
d="M47 362q0 157 105 265t260 108t260 -108t105 -265t-105 -265t-260 -108t-260 108t-105 265zM108 362q0 -133 86.5 -224.5t217.5 -91.5t217.5 91.5t86.5 224.5t-86.5 224.5t-217.5 91.5t-217.5 -91.5t-86.5 -224.5zM412 805q-63 0 -96.5 40.5t-35.5 102.5h39
q10 -104 93 -104t93 104h39q-2 -62 -35.5 -102.5t-96.5 -40.5z" />
    <glyph glyph-name="obreve" unicode="&#x14f;" horiz-adv-x="610" 
d="M50 246q0 109 72.5 183t182.5 74t182.5 -74t72.5 -183t-72.5 -183t-182.5 -74t-182.5 74t-72.5 183zM109 246q0 -87 56 -145t140 -58t140 58t56 145t-56 145t-140 58t-140 -58t-56 -145zM305 573q-63 0 -96.5 40.5t-35.5 102.5h39q10 -104 93 -104t93 104h39
q-2 -62 -35.5 -102.5t-96.5 -40.5z" />
    <glyph glyph-name="Ohungarumlaut" unicode="&#x150;" horiz-adv-x="824" 
d="M47 362q0 157 105 265t260 108t260 -108t105 -265t-105 -265t-260 -108t-260 108t-105 265zM108 362q0 -133 86.5 -224.5t217.5 -91.5t217.5 91.5t86.5 224.5t-86.5 224.5t-217.5 91.5t-217.5 -91.5t-86.5 -224.5zM430 795l89 164h54l-102 -164h-41zM303 795l89 164h54
l-102 -164h-41z" />
    <glyph glyph-name="ohungarumlaut" unicode="&#x151;" horiz-adv-x="610" 
d="M50 246q0 109 72.5 183t182.5 74t182.5 -74t72.5 -183t-72.5 -183t-182.5 -74t-182.5 74t-72.5 183zM109 246q0 -87 56 -145t140 -58t140 58t56 145t-56 145t-140 58t-140 -58t-56 -145zM323 563l89 164h54l-102 -164h-41zM196 563l89 164h54l-102 -164h-41z" />
    <glyph glyph-name="OE" unicode="&#x152;" horiz-adv-x="939" 
d="M190 74q-68 50 -105.5 124t-37.5 163q0 84 33 155t91 119q107 89 310 89h397v-56h-330v-264h291v-56h-291v-292h339v-56h-409q-188 0 -288 74zM224 122q47 -35 105.5 -50.5t157.5 -15.5v612q-99 0 -161 -17.5t-110 -55.5q-108 -89 -108 -234q0 -150 116 -239z" />
    <glyph glyph-name="oe" unicode="&#x153;" horiz-adv-x="1005" 
d="M50 245q0 110 72 184t182 74q75 0 132.5 -36t87.5 -98h2q29 61 85 97.5t125 36.5q92 0 153.5 -62t61.5 -168q0 -27 -3 -43h-393q7 -86 63 -137t141 -51q87 0 163 57v-64q-72 -46 -168 -46q-78 0 -138.5 35.5t-89.5 97.5h-2q-32 -63 -89 -98t-131 -35q-110 0 -182 73.5
t-72 182.5zM734 450q-67 0 -119 -46.5t-60 -124.5h339q0 80 -47.5 125.5t-112.5 45.5zM109 247q0 -88 55.5 -146t138.5 -58q84 0 139 57.5t55 144.5q0 88 -55.5 146t-139.5 58q-83 0 -138 -58t-55 -144z" />
    <glyph glyph-name="Racute" unicode="&#x154;" horiz-adv-x="639" 
d="M90 0v724h194q134 0 200 -43q84 -55 84 -156q0 -98 -76 -153q-43 -32 -117 -43l242 -329h-74l-236 324h-156v-324h-61zM151 376h152q107 0 158 42q46 39 46 104q0 74 -59 113q-50 33 -168 33h-129v-292zM399 959l-105 -164h-46l86 164h65z" />
    <glyph glyph-name="racute" unicode="&#x155;" horiz-adv-x="351" 
d="M87 0v492h59v-80l2 -1q64 86 159 86q15 0 29 -3v-57q-14 3 -31 3q-95 0 -159 -96v-344h-59zM282 727l-105 -164h-46l86 164h65z" />
    <glyph glyph-name="Rcommaaccent" unicode="&#x156;" horiz-adv-x="639" 
d="M90 0v724h194q134 0 200 -43q84 -55 84 -156q0 -98 -76 -153q-43 -32 -117 -43l242 -329h-74l-236 324h-156v-324h-61zM151 376h152q107 0 158 42q46 39 46 104q0 74 -59 113q-50 33 -168 33h-129v-292zM298 -54h58l-72 -218h-43z" />
    <glyph glyph-name="rcommaaccent" unicode="&#x157;" horiz-adv-x="351" 
d="M87 0v492h59v-80l2 -1q64 86 159 86q15 0 29 -3v-57q-14 3 -31 3q-95 0 -159 -96v-344h-59zM131 -54h58l-72 -218h-43z" />
    <glyph glyph-name="Rcaron" unicode="&#x158;" horiz-adv-x="639" 
d="M90 0v724h194q134 0 200 -43q84 -55 84 -156q0 -98 -76 -153q-43 -32 -117 -43l242 -329h-74l-236 324h-156v-324h-61zM151 376h152q107 0 158 42q46 39 46 104q0 74 -59 113q-50 33 -168 33h-129v-292zM446 959l-116 -164h-62l-116 164h50l97 -125l97 125h50z" />
    <glyph glyph-name="rcaron" unicode="&#x159;" horiz-adv-x="351" 
d="M87 0v492h59v-80l2 -1q64 86 159 86q15 0 29 -3v-57q-14 3 -31 3q-95 0 -159 -96v-344h-59zM329 727l-116 -164h-62l-116 164h50l97 -125l97 125h50z" />
    <glyph glyph-name="Sacute" unicode="&#x15a;" horiz-adv-x="554" 
d="M69 49v68q91 -71 212 -71q76 0 122 36.5t46 104.5q0 22 -6.5 41t-13.5 32t-25 25.5t-28.5 19t-36.5 15.5t-36.5 12t-40.5 11q-37 10 -62 19t-54.5 25.5t-47.5 36t-30 49.5t-12 68q0 91 60.5 142.5t160.5 51.5q119 0 203 -57v-66q-92 66 -204 66q-73 0 -116 -34.5
t-43 -98.5q0 -35 12 -60t43 -42t50.5 -24t65.5 -20q7 -2 10 -3q38 -11 62.5 -19.5t56 -25.5t49.5 -37t31 -52t13 -72q0 -94 -62.5 -147.5t-166.5 -53.5q-123 0 -212 60zM379 959l-105 -164h-46l86 164h65z" />
    <glyph glyph-name="sacute" unicode="&#x15b;" horiz-adv-x="485" 
d="M59 32v63q81 -52 186 -52q64 0 100 22.5t36 65.5q0 20 -9 35.5t-20.5 24t-34.5 15.5t-37.5 10t-44.5 7q-9 1 -13 2q-37 6 -63 13.5t-54 22t-43 40t-15 61.5q0 68 52 104.5t139 36.5q99 0 177 -42v-62q-79 50 -179 50q-60 0 -95 -21t-35 -62q0 -30 24 -48.5t44 -23.5
t70 -13q3 -1 5 -1.5t5 -1t6 -0.5q40 -6 67 -14t55.5 -23t43 -41.5t14.5 -63.5q0 -71 -53.5 -109t-144.5 -38q-106 0 -183 43zM338 727l-105 -164h-46l86 164h65z" />
    <glyph glyph-name="Scircumflex" unicode="&#x15c;" horiz-adv-x="554" 
d="M69 49v68q91 -71 212 -71q76 0 122 36.5t46 104.5q0 22 -6.5 41t-13.5 32t-25 25.5t-28.5 19t-36.5 15.5t-36.5 12t-40.5 11q-37 10 -62 19t-54.5 25.5t-47.5 36t-30 49.5t-12 68q0 91 60.5 142.5t160.5 51.5q119 0 203 -57v-66q-92 66 -204 66q-73 0 -116 -34.5
t-43 -98.5q0 -35 12 -60t43 -42t50.5 -24t65.5 -20q7 -2 10 -3q38 -11 62.5 -19.5t56 -25.5t49.5 -37t31 -52t13 -72q0 -94 -62.5 -147.5t-166.5 -53.5q-123 0 -212 60zM132 795l116 164h62l116 -164h-50l-97 125l-97 -125h-50z" />
    <glyph glyph-name="scircumflex" unicode="&#x15d;" horiz-adv-x="485" 
d="M59 32v63q81 -52 186 -52q64 0 100 22.5t36 65.5q0 20 -9 35.5t-20.5 24t-34.5 15.5t-37.5 10t-44.5 7q-9 1 -13 2q-37 6 -63 13.5t-54 22t-43 40t-15 61.5q0 68 52 104.5t139 36.5q99 0 177 -42v-62q-79 50 -179 50q-60 0 -95 -21t-35 -62q0 -30 24 -48.5t44 -23.5
t70 -13q3 -1 5 -1.5t5 -1t6 -0.5q40 -6 67 -14t55.5 -23t43 -41.5t14.5 -63.5q0 -71 -53.5 -109t-144.5 -38q-106 0 -183 43zM91 563l116 164h62l116 -164h-50l-97 125l-97 -125h-50z" />
    <glyph glyph-name="Scedilla" unicode="&#x15e;" horiz-adv-x="554" 
d="M237 -81l21 71q-111 7 -189 59v68q91 -71 212 -71q76 0 122 36.5t46 104.5q0 22 -6.5 41t-13.5 32t-25 25.5t-28.5 19t-36.5 15.5t-36.5 12t-40.5 11q-37 10 -62 19t-54.5 25.5t-47.5 36t-30 49.5t-12 68q0 91 60.5 142.5t160.5 51.5q119 0 203 -57v-66q-92 66 -204 66
q-73 0 -116 -34.5t-43 -98.5q0 -35 12 -60t43 -42t50.5 -24t65.5 -20q7 -2 10 -3q38 -11 62.5 -19.5t56 -25.5t49.5 -37t31 -52t13 -72q0 -91 -59 -144t-158 -57l-12 -39q92 -18 92 -87q0 -38 -26.5 -61t-70.5 -23q-40 0 -76 18l11 36q36 -18 65 -18q24 0 39.5 12t15.5 33
q0 51 -94 59z" />
    <glyph glyph-name="scedilla" unicode="&#x15f;" horiz-adv-x="485" 
d="M59 32v63q81 -52 186 -52q64 0 100 22.5t36 65.5q0 20 -9 35.5t-20.5 24t-34.5 15.5t-37.5 10t-44.5 7q-9 1 -13 2q-37 6 -63 13.5t-54 22t-43 40t-15 61.5q0 68 52 104.5t139 36.5q99 0 177 -42v-62q-79 50 -179 50q-60 0 -95 -21t-35 -62q0 -30 24 -48.5t44 -23.5
t70 -13q3 -1 5 -1.5t5 -1t6 -0.5q40 -6 67 -14t55.5 -23t43 -41.5t14.5 -63.5q0 -70 -50.5 -107.5t-138.5 -39.5l-12 -39q92 -18 92 -87q0 -38 -26.5 -61t-70.5 -23q-40 0 -76 18l11 36q36 -18 65 -18q24 0 39.5 12t15.5 33q0 51 -94 59l21 71q-90 5 -157 42z" />
    <glyph glyph-name="Scaron" unicode="&#x160;" horiz-adv-x="554" 
d="M69 49v68q91 -71 212 -71q76 0 122 36.5t46 104.5q0 22 -6.5 41t-13.5 32t-25 25.5t-28.5 19t-36.5 15.5t-36.5 12t-40.5 11q-37 10 -62 19t-54.5 25.5t-47.5 36t-30 49.5t-12 68q0 91 60.5 142.5t160.5 51.5q119 0 203 -57v-66q-92 66 -204 66q-73 0 -116 -34.5
t-43 -98.5q0 -35 12 -60t43 -42t50.5 -24t65.5 -20q7 -2 10 -3q38 -11 62.5 -19.5t56 -25.5t49.5 -37t31 -52t13 -72q0 -94 -62.5 -147.5t-166.5 -53.5q-123 0 -212 60zM426 959l-116 -164h-62l-116 164h50l97 -125l97 125h50z" />
    <glyph glyph-name="scaron" unicode="&#x161;" horiz-adv-x="485" 
d="M59 32v63q81 -52 186 -52q64 0 100 22.5t36 65.5q0 20 -9 35.5t-20.5 24t-34.5 15.5t-37.5 10t-44.5 7q-9 1 -13 2q-37 6 -63 13.5t-54 22t-43 40t-15 61.5q0 68 52 104.5t139 36.5q99 0 177 -42v-62q-79 50 -179 50q-60 0 -95 -21t-35 -62q0 -30 24 -48.5t44 -23.5
t70 -13q3 -1 5 -1.5t5 -1t6 -0.5q40 -6 67 -14t55.5 -23t43 -41.5t14.5 -63.5q0 -71 -53.5 -109t-144.5 -38q-106 0 -183 43zM385 727l-116 -164h-62l-116 164h50l97 -125l97 125h50z" />
    <glyph glyph-name="Tcommaaccent" unicode="&#x162;" horiz-adv-x="619" 
d="M279 0v668h-249v56h559v-56h-249v-668h-13l-15 -50q92 -18 92 -87q0 -38 -26.5 -61t-70.5 -23q-40 0 -76 18l11 36q36 -18 65 -18q24 0 39.5 12t15.5 33q0 51 -94 59l24 81h-13z" />
    <glyph glyph-name="tcommaaccent" unicode="&#x163;" horiz-adv-x="372" 
d="M195 -81l23 76q-38 9 -61 36q-35 41 -35 137v272h-98v52h98v138l59 10v-148h159v-52h-159v-262q0 -65 18 -100t71 -35q39 0 70 18v-56q-34 -16 -78 -16h-11l-12 -39q92 -18 92 -87q0 -38 -26.5 -61t-70.5 -23q-40 0 -76 18l11 36q36 -18 65 -18q24 0 39.5 12t15.5 33
q0 51 -94 59z" />
    <glyph glyph-name="Tcaron" unicode="&#x164;" horiz-adv-x="619" 
d="M279 0v668h-249v56h559v-56h-249v-668h-61zM456 959l-116 -164h-62l-116 164h50l97 -125l97 125h50z" />
    <glyph glyph-name="tcaron" unicode="&#x165;" horiz-adv-x="372" 
d="M157 31q-35 41 -35 137v272h-98v52h98v138l59 10v-148h159v-52h-159v-262q0 -65 18 -100t71 -35q39 0 70 18v-56q-34 -16 -78 -16q-68 0 -105 42zM342 772h58l-72 -218h-43z" />
    <glyph glyph-name="Tbar" unicode="&#x166;" horiz-adv-x="619" 
d="M141 339v51h138v278h-249v56h559v-56h-249v-278h138v-51h-138v-339h-61v339h-138z" />
    <glyph glyph-name="tbar" unicode="&#x167;" horiz-adv-x="385" 
d="M29 247v52h98v141h-98v52h98v138l59 10v-148h159v-52h-159v-141h159v-52h-159v-69q0 -65 18 -100t71 -35q39 0 70 18v-56q-34 -16 -78 -16q-68 0 -105 42q-35 41 -35 137v79h-98z" />
    <glyph glyph-name="Utilde" unicode="&#x168;" horiz-adv-x="723" 
d="M144 80q-36 45 -49.5 108t-13.5 156v380h61v-375q0 -167 50 -231q56 -72 172 -72q127 0 180 85q39 62 39 216v377h59v-374q0 -93 -11 -152.5t-40 -103.5q-71 -105 -230 -105q-145 0 -217 91zM356 856q-43 26 -66 26q-44 0 -78 -52l-2 1v56q29 44 79 44q32 0 79 -27
q43 -26 66 -26q44 0 78 52l2 -1v-56q-29 -44 -79 -44q-35 0 -79 27z" />
    <glyph glyph-name="utilde" unicode="&#x169;" 
d="M128 41q-43 49 -43 154v297h59v-286q0 -91 31 -126q33 -37 93 -37q92 0 178 91v358h59v-492h-59v70l-2 1q-86 -82 -187 -82q-83 0 -129 52zM290 624q-43 26 -66 26q-44 0 -78 -52l-2 1v56q29 44 79 44q32 0 79 -27q43 -26 66 -26q44 0 78 52l2 -1v-56q-29 -44 -79 -44
q-35 0 -79 27z" />
    <glyph glyph-name="Umacron" unicode="&#x16a;" horiz-adv-x="723" 
d="M144 80q-36 45 -49.5 108t-13.5 156v380h61v-375q0 -167 50 -231q56 -72 172 -72q127 0 180 85q39 62 39 216v377h59v-374q0 -93 -11 -152.5t-40 -103.5q-71 -105 -230 -105q-145 0 -217 91zM230 854v46h264v-46h-264z" />
    <glyph glyph-name="umacron" unicode="&#x16b;" 
d="M128 41q-43 49 -43 154v297h59v-286q0 -91 31 -126q33 -37 93 -37q92 0 178 91v358h59v-492h-59v70l-2 1q-86 -82 -187 -82q-83 0 -129 52zM164 622v46h264v-46h-264z" />
    <glyph glyph-name="Ubreve" unicode="&#x16c;" horiz-adv-x="723" 
d="M144 80q-36 45 -49.5 108t-13.5 156v380h61v-375q0 -167 50 -231q56 -72 172 -72q127 0 180 85q39 62 39 216v377h59v-374q0 -93 -11 -152.5t-40 -103.5q-71 -105 -230 -105q-145 0 -217 91zM362 805q-63 0 -96.5 40.5t-35.5 102.5h39q10 -104 93 -104t93 104h39
q-2 -62 -35.5 -102.5t-96.5 -40.5z" />
    <glyph glyph-name="ubreve" unicode="&#x16d;" 
d="M128 41q-43 49 -43 154v297h59v-286q0 -91 31 -126q33 -37 93 -37q92 0 178 91v358h59v-492h-59v70l-2 1q-86 -82 -187 -82q-83 0 -129 52zM296 573q-63 0 -96.5 40.5t-35.5 102.5h39q10 -104 93 -104t93 104h39q-2 -62 -35.5 -102.5t-96.5 -40.5z" />
    <glyph glyph-name="Uring" unicode="&#x16e;" horiz-adv-x="723" 
d="M144 80q-36 45 -49.5 108t-13.5 156v380h61v-375q0 -167 50 -231q56 -72 172 -72q127 0 180 85q39 62 39 216v377h59v-374q0 -93 -11 -152.5t-40 -103.5q-71 -105 -230 -105q-145 0 -217 91zM250 897q0 47 32 79t80 32t80 -32t32 -79t-32 -79t-80 -32t-80 32t-32 79z
M288 897q0 -32 20.5 -53.5t53.5 -21.5t53.5 21.5t20.5 53.5t-20.5 53.5t-53.5 21.5t-53.5 -21.5t-20.5 -53.5z" />
    <glyph glyph-name="uring" unicode="&#x16f;" 
d="M128 41q-43 49 -43 154v297h59v-286q0 -91 31 -126q33 -37 93 -37q92 0 178 91v358h59v-492h-59v70l-2 1q-86 -82 -187 -82q-83 0 -129 52zM184 665q0 47 32 79t80 32t80 -32t32 -79t-32 -79t-80 -32t-80 32t-32 79zM222 665q0 -32 20.5 -53.5t53.5 -21.5t53.5 21.5
t20.5 53.5t-20.5 53.5t-53.5 21.5t-53.5 -21.5t-20.5 -53.5z" />
    <glyph glyph-name="Uhungarumlaut" unicode="&#x170;" horiz-adv-x="723" 
d="M144 80q-36 45 -49.5 108t-13.5 156v380h61v-375q0 -167 50 -231q56 -72 172 -72q127 0 180 85q39 62 39 216v377h59v-374q0 -93 -11 -152.5t-40 -103.5q-71 -105 -230 -105q-145 0 -217 91zM380 795l89 164h54l-102 -164h-41zM253 795l89 164h54l-102 -164h-41z" />
    <glyph glyph-name="uhungarumlaut" unicode="&#x171;" 
d="M128 41q-43 49 -43 154v297h59v-286q0 -91 31 -126q33 -37 93 -37q92 0 178 91v358h59v-492h-59v70l-2 1q-86 -82 -187 -82q-83 0 -129 52zM314 563l89 164h54l-102 -164h-41zM187 563l89 164h54l-102 -164h-41z" />
    <glyph glyph-name="Uogonek" unicode="&#x172;" horiz-adv-x="723" 
d="M144 80q-36 45 -49.5 108t-13.5 156v380h61v-375q0 -167 50 -231q56 -72 172 -72q127 0 180 85q39 62 39 216v377h59v-374q0 -93 -11 -152.5t-40 -103.5q-57 -84 -174 -101q-77 -63 -77 -125q0 -26 15.5 -40.5t40.5 -14.5q21 0 39 6v-42q-21 -8 -46 -8q-46 0 -73 25.5
t-27 66.5q0 65 63 126l-1 2q-137 3 -207 91z" />
    <glyph glyph-name="uogonek" unicode="&#x173;" 
d="M514 -181v-43q-24 -7 -46 -7q-46 0 -72.5 25.5t-26.5 66.5q0 72 77 139v70l-2 1q-86 -82 -187 -82q-83 0 -129 52q-43 49 -43 154v297h59v-286q0 -91 31 -126q33 -37 93 -37q92 0 178 91v358h59v-492q-85 -63 -85 -131q0 -28 15 -42t40 -14q19 0 39 6z" />
    <glyph glyph-name="Wcircumflex" unicode="&#x174;" horiz-adv-x="997" 
d="M245 0l-228 724h66l128 -410q47 -152 67 -220h2q29 95 69 222l129 408h45l132 -418q30 -94 66 -212h2q29 97 64 210l131 420h62l-227 -724h-63l-132 418q-32 101 -57 185h-2q-25 -87 -56 -182l-133 -421h-65zM352 795l116 164h62l116 -164h-50l-97 125l-97 -125h-50z" />
    <glyph glyph-name="wcircumflex" unicode="&#x175;" horiz-adv-x="810" 
d="M203 0l-173 492h63l87 -249q36 -104 56 -164h2q24 69 57 161l91 252h41l89 -246q29 -80 59 -166h2q20 60 55 162l87 250h61l-173 -492h-59l-87 240q-33 92 -54 154h-2q-26 -76 -55 -156l-86 -238h-61zM259 563l116 164h62l116 -164h-50l-97 125l-97 -125h-50z" />
    <glyph glyph-name="Ycircumflex" unicode="&#x176;" horiz-adv-x="644" 
d="M447 559l116 165h69l-279 -396v-328h-61v327l-280 397h71l116 -165q61 -87 123 -177h2q39 57 123 177zM177 795l116 164h62l116 -164h-50l-97 125l-97 -125h-50z" />
    <glyph glyph-name="ycircumflex" unicode="&#x177;" horiz-adv-x="540" 
d="M347 283l99 209h62l-340 -712h-63l133 273l-208 439h65l98 -208q39 -83 76 -164h2q44 94 76 163zM123 563l116 164h62l116 -164h-50l-97 125l-97 -125h-50z" />
    <glyph glyph-name="Ydieresis" unicode="&#x178;" horiz-adv-x="644" 
d="M447 559l116 165h69l-279 -396v-328h-61v327l-280 397h71l116 -165q61 -87 123 -177h2q39 57 123 177zM416 836q-17 0 -29 12t-12 29t12 29t29 12t29 -12t12 -29t-12 -29t-29 -12zM232 836q-17 0 -29 12t-12 29t12 29t29 12t29 -12t12 -29t-12 -29t-29 -12z" />
    <glyph glyph-name="Zacute" unicode="&#x179;" horiz-adv-x="619" 
d="M577 0h-549l-1 2l449 664l-1 2h-423v56h532l1 -2l-449 -664l1 -2h440v-56zM414 959l-105 -164h-46l86 164h65z" />
    <glyph glyph-name="zacute" unicode="&#x17a;" horiz-adv-x="471" 
d="M439 0h-413l-1 2l313 434l-1 2h-293v54h400l1 -2l-313 -434l1 -2h306v-54zM336 727l-105 -164h-46l86 164h65z" />
    <glyph glyph-name="Zdotaccent" unicode="&#x17b;" horiz-adv-x="619" 
d="M577 0h-549l-1 2l449 664l-1 2h-423v56h532l1 -2l-449 -664l1 -2h440v-56zM314 836q-17 0 -29 12t-12 29t12 29t29 12t29 -12t12 -29t-12 -29t-29 -12z" />
    <glyph glyph-name="zdotaccent" unicode="&#x17c;" horiz-adv-x="471" 
d="M439 0h-413l-1 2l313 434l-1 2h-293v54h400l1 -2l-313 -434l1 -2h306v-54zM236 604q-17 0 -29 12t-12 29t12 29t29 12t29 -12t12 -29t-12 -29t-29 -12z" />
    <glyph glyph-name="Zcaron" unicode="&#x17d;" horiz-adv-x="619" 
d="M577 0h-549l-1 2l449 664l-1 2h-423v56h532l1 -2l-449 -664l1 -2h440v-56zM461 959l-116 -164h-62l-116 164h50l97 -125l97 125h50z" />
    <glyph glyph-name="zcaron" unicode="&#x17e;" horiz-adv-x="471" 
d="M439 0h-413l-1 2l313 434l-1 2h-293v54h400l1 -2l-313 -434l1 -2h306v-54zM383 727l-116 -164h-62l-116 164h50l97 -125l97 125h50z" />
    <glyph glyph-name="longs" unicode="&#x17f;" horiz-adv-x="266" 
d="M109 0v440h-84v52h84v107q0 98 42 139q38 37 106 37q35 0 64 -9v-53q-27 8 -62 8q-52 0 -71.5 -29t-19.5 -85v-607h-59z" />
    <glyph glyph-name="florin" unicode="&#x192;" horiz-adv-x="493" 
d="M127 439l9 53h83l22 123q26 151 178 151q29 0 54 -6v-55q-24 7 -57 7q-101 0 -118 -97l-22 -123h136l-9 -53h-136l-92 -527q-25 -143 -158 -143q-30 0 -51 6v56q28 -8 54 -8q82 0 99 94l91 522h-83z" />
    <glyph glyph-name="AEacute" unicode="&#x1fc;" horiz-adv-x="926" 
d="M8 0l431 724h426v-56h-330v-264h291v-56h-291v-292h339v-56h-400v217h-270l-129 -217h-67zM375 505l-139 -234h238v221q0 120 1 180h-2q-41 -71 -98 -167zM721 959l-105 -164h-46l86 164h65z" />
    <glyph glyph-name="aeacute" unicode="&#x1fd;" horiz-adv-x="877" 
d="M240 503q39 0 72.5 -9t62 -32.5t40.5 -60.5h2q30 47 81 74.5t111 27.5q91 0 152.5 -62.5t61.5 -168.5q0 -20 -2 -42h-394q7 -86 63 -137t142 -51t162 57v-64q-72 -46 -167 -46q-58 0 -113.5 23t-92.5 71q-94 -94 -203 -94q-71 0 -115 34q-52 38 -52 106q0 74 61 114
q50 33 136 33q58 0 120 -16v55q0 71 -35 103q-36 31 -99 31q-82 0 -147 -48v58q69 44 153 44zM607 450q-66 0 -118.5 -45.5t-61.5 -125.5h339q0 80 -47.5 125.5t-111.5 45.5zM398 120q-22 43 -27 91q-61 18 -118 18q-60 0 -101.5 -23t-41.5 -73q0 -45 33.5 -68t81.5 -23
q98 0 173 78zM572 727l-105 -164h-46l86 164h65z" />
    <glyph glyph-name="Oslashacute" unicode="&#x1fe;" horiz-adv-x="824" 
d="M412 -11q-124 0 -221 73l-63 -75l-39 33l64 76q-106 108 -106 266q0 157 105 265t260 108q124 0 221 -73l63 75l39 -33l-64 -76q106 -108 106 -266q0 -157 -105 -265t-260 -108zM108 362q0 -130 83 -221l404 477q-79 60 -183 60q-131 0 -217.5 -91.5t-86.5 -224.5z
M716 362q0 130 -83 221l-404 -477q79 -60 183 -60q131 0 217.5 91.5t86.5 224.5zM512 959l-105 -164h-46l86 164h65z" />
    <glyph glyph-name="oslashacute" unicode="&#x1ff;" horiz-adv-x="610" 
d="M305 -11q-86 0 -150 47l-46 -54l-34 28l46 54q-71 74 -71 182q0 109 72.5 183t182.5 74q86 0 150 -47l46 54l34 -28l-46 -54q71 -74 71 -182q0 -109 -72.5 -183t-182.5 -74zM109 246q0 -80 50 -138l260 306q-49 35 -114 35q-84 0 -140 -58t-56 -145zM501 246
q0 80 -50 138l-260 -306q49 -35 114 -35q84 0 140 58t56 145zM405 727l-105 -164h-46l86 164h65z" />
    <glyph glyph-name="Scommaaccent" unicode="&#x218;" horiz-adv-x="554" 
d="M69 49v68q91 -71 212 -71q76 0 122 36.5t46 104.5q0 22 -6.5 41t-13.5 32t-25 25.5t-28.5 19t-36.5 15.5t-36.5 12t-40.5 11q-37 10 -62 19t-54.5 25.5t-47.5 36t-30 49.5t-12 68q0 91 60.5 142.5t160.5 51.5q119 0 203 -57v-66q-92 66 -204 66q-73 0 -116 -34.5
t-43 -98.5q0 -35 12 -60t43 -42t50.5 -24t65.5 -20q7 -2 10 -3q38 -11 62.5 -19.5t56 -25.5t49.5 -37t31 -52t13 -72q0 -94 -62.5 -147.5t-166.5 -53.5q-123 0 -212 60zM278 -54h58l-72 -218h-43z" />
    <glyph glyph-name="scommaaccent" unicode="&#x219;" horiz-adv-x="485" 
d="M59 32v63q81 -52 186 -52q64 0 100 22.5t36 65.5q0 20 -9 35.5t-20.5 24t-34.5 15.5t-37.5 10t-44.5 7q-9 1 -13 2q-37 6 -63 13.5t-54 22t-43 40t-15 61.5q0 68 52 104.5t139 36.5q99 0 177 -42v-62q-79 50 -179 50q-60 0 -95 -21t-35 -62q0 -30 24 -48.5t44 -23.5
t70 -13q3 -1 5 -1.5t5 -1t6 -0.5q40 -6 67 -14t55.5 -23t43 -41.5t14.5 -63.5q0 -71 -53.5 -109t-144.5 -38q-106 0 -183 43zM237 -54h58l-72 -218h-43z" />
    <glyph glyph-name="uni021A" unicode="&#x21a;" horiz-adv-x="619" 
d="M279 0v668h-249v56h559v-56h-249v-668h-61zM308 -54h58l-72 -218h-43z" />
    <glyph glyph-name="uni021B" unicode="&#x21b;" horiz-adv-x="372" 
d="M157 31q-35 41 -35 137v272h-98v52h98v138l59 10v-148h159v-52h-159v-262q0 -65 18 -100t71 -35q39 0 70 18v-56q-34 -16 -78 -16q-68 0 -105 42zM223 -54h58l-72 -218h-43z" />
    <glyph glyph-name="dotlessj" unicode="&#x237;" horiz-adv-x="235" 
d="M89 -71v563h59v-560q0 -85 -32 -122q-36 -41 -105 -41q-26 0 -54 7v53q34 -6 53 -6q45 0 62 26.5t17 79.5z" />
    <glyph glyph-name="circumflex" unicode="&#x2c6;" horiz-adv-x="486" 
d="M96 563l116 164h62l116 -164h-50l-97 125l-97 -125h-50z" />
    <glyph glyph-name="caron" unicode="&#x2c7;" horiz-adv-x="486" 
d="M390 727l-116 -164h-62l-116 164h50l97 -125l97 125h50z" />
    <glyph glyph-name="breve" unicode="&#x2d8;" horiz-adv-x="486" 
d="M243 573q-63 0 -96.5 40.5t-35.5 102.5h39q10 -104 93 -104t93 104h39q-2 -62 -35.5 -102.5t-96.5 -40.5z" />
    <glyph glyph-name="dotaccent" unicode="&#x2d9;" horiz-adv-x="486" 
d="M243 604q-17 0 -29 12t-12 29t12 29t29 12t29 -12t12 -29t-12 -29t-29 -12z" />
    <glyph glyph-name="ring" unicode="&#x2da;" horiz-adv-x="486" 
d="M131 665q0 47 32 79t80 32t80 -32t32 -79t-32 -79t-80 -32t-80 32t-32 79zM169 665q0 -32 20.5 -53.5t53.5 -21.5t53.5 21.5t20.5 53.5t-20.5 53.5t-53.5 21.5t-53.5 -21.5t-20.5 -53.5z" />
    <glyph glyph-name="ogonek" unicode="&#x2db;" horiz-adv-x="486" 
d="M185 -139q0 80 96 154l46 -11q-91 -68 -91 -136q0 -26 15.5 -40.5t40.5 -14.5q21 0 39 6v-42q-21 -8 -46 -8q-46 0 -73 25.5t-27 66.5z" />
    <glyph glyph-name="tilde" unicode="&#x2dc;" horiz-adv-x="486" 
d="M237 624q-43 26 -66 26q-44 0 -78 -52l-2 1v56q29 44 79 44q32 0 79 -27q43 -26 66 -26q44 0 78 52l2 -1v-56q-29 -44 -79 -44q-35 0 -79 27z" />
    <glyph glyph-name="hungarumlaut" unicode="&#x2dd;" horiz-adv-x="486" 
d="M261 563l89 164h54l-102 -164h-41zM134 563l89 164h54l-102 -164h-41z" />
    <glyph glyph-name="uni0394" unicode="&#x394;" horiz-adv-x="675" 
d="M22 0v40l285 684h61l285 -684v-40h-631zM262 470l-172 -414h493l-173 418q-46 112 -72 177h-2q-34 -85 -74 -181z" />
    <glyph glyph-name="uni03A9" unicode="&#x3a9;" horiz-adv-x="742" 
d="M371 735q144 0 232 -95t88 -239q0 -94 -41 -182.5t-115 -160.5l1 -2h186v-56h-270v42q178 156 178 354q0 124 -69.5 203t-189.5 79t-189.5 -79t-69.5 -203q0 -198 178 -354v-42h-270v56h186l1 2q-74 72 -115 160.5t-41 182.5q0 144 88 239t232 95z" />
    <glyph glyph-name="uni03BC" unicode="&#x3bc;" horiz-adv-x="599" 
d="M508 0h-59v70l-2 1q-86 -82 -187 -82q-76 0 -114 41l-2 -1l6 -249h-62v712h59v-286q0 -91 31 -126q33 -37 93 -37q92 0 178 91v358h59v-492z" />
    <glyph glyph-name="pi" unicode="&#x3c0;" horiz-adv-x="639" 
d="M130 0q32 194 34 437q-72 -8 -134 -49v54q69 50 172 50h418l-9 -53h-107v-439h-59v439h-222q-2 -225 -34 -439h-59z" />
    <glyph glyph-name="Wgrave" unicode="&#x1e80;" horiz-adv-x="997" 
d="M245 0l-228 724h66l128 -410q47 -152 67 -220h2q29 95 69 222l129 408h45l132 -418q30 -94 66 -212h2q29 97 64 210l131 420h62l-227 -724h-63l-132 418q-32 101 -57 185h-2q-25 -87 -56 -182l-133 -421h-65zM504 795l-105 164h65l86 -164h-46z" />
    <glyph glyph-name="wgrave" unicode="&#x1e81;" horiz-adv-x="810" 
d="M203 0l-173 492h63l87 -249q36 -104 56 -164h2q24 69 57 161l91 252h41l89 -246q29 -80 59 -166h2q20 60 55 162l87 250h61l-173 -492h-59l-87 240q-33 92 -54 154h-2q-26 -76 -55 -156l-86 -238h-61zM411 563l-105 164h65l86 -164h-46z" />
    <glyph glyph-name="Wacute" unicode="&#x1e82;" horiz-adv-x="997" 
d="M245 0l-228 724h66l128 -410q47 -152 67 -220h2q29 95 69 222l129 408h45l132 -418q30 -94 66 -212h2q29 97 64 210l131 420h62l-227 -724h-63l-132 418q-32 101 -57 185h-2q-25 -87 -56 -182l-133 -421h-65zM599 959l-105 -164h-46l86 164h65z" />
    <glyph glyph-name="wacute" unicode="&#x1e83;" horiz-adv-x="810" 
d="M203 0l-173 492h63l87 -249q36 -104 56 -164h2q24 69 57 161l91 252h41l89 -246q29 -80 59 -166h2q20 60 55 162l87 250h61l-173 -492h-59l-87 240q-33 92 -54 154h-2q-26 -76 -55 -156l-86 -238h-61zM506 727l-105 -164h-46l86 164h65z" />
    <glyph glyph-name="Wdieresis" unicode="&#x1e84;" horiz-adv-x="997" 
d="M245 0l-228 724h66l128 -410q47 -152 67 -220h2q29 95 69 222l129 408h45l132 -418q30 -94 66 -212h2q29 97 64 210l131 420h62l-227 -724h-63l-132 418q-32 101 -57 185h-2q-25 -87 -56 -182l-133 -421h-65zM591 836q-17 0 -29 12t-12 29t12 29t29 12t29 -12t12 -29
t-12 -29t-29 -12zM407 836q-17 0 -29 12t-12 29t12 29t29 12t29 -12t12 -29t-12 -29t-29 -12z" />
    <glyph glyph-name="wdieresis" unicode="&#x1e85;" horiz-adv-x="810" 
d="M203 0l-173 492h63l87 -249q36 -104 56 -164h2q24 69 57 161l91 252h41l89 -246q29 -80 59 -166h2q20 60 55 162l87 250h61l-173 -492h-59l-87 240q-33 92 -54 154h-2q-26 -76 -55 -156l-86 -238h-61zM498 604q-17 0 -29 12t-12 29t12 29t29 12t29 -12t12 -29t-12 -29
t-29 -12zM314 604q-17 0 -29 12t-12 29t12 29t29 12t29 -12t12 -29t-12 -29t-29 -12z" />
    <glyph glyph-name="Ygrave" unicode="&#x1ef2;" horiz-adv-x="644" 
d="M447 559l116 165h69l-279 -396v-328h-61v327l-280 397h71l116 -165q61 -87 123 -177h2q39 57 123 177zM329 795l-105 164h65l86 -164h-46z" />
    <glyph glyph-name="ygrave" unicode="&#x1ef3;" horiz-adv-x="540" 
d="M347 283l99 209h62l-340 -712h-63l133 273l-208 439h65l98 -208q39 -83 76 -164h2q44 94 76 163zM275 563l-105 164h65l86 -164h-46z" />
    <glyph glyph-name="endash" unicode="&#x2013;" horiz-adv-x="498" 
d="M53 253v48h392v-48h-392z" />
    <glyph glyph-name="emdash" unicode="&#x2014;" horiz-adv-x="790" 
d="M38 256v43h714v-43h-714z" />
    <glyph glyph-name="quoteleft" unicode="&#x2018;" horiz-adv-x="268" 
d="M74 481l75 261h41l-57 -261h-59z" />
    <glyph glyph-name="quoteright" unicode="&#x2019;" horiz-adv-x="268" 
d="M78 481l57 261h59l-75 -261h-41z" />
    <glyph glyph-name="quotesinglbase" unicode="&#x201a;" horiz-adv-x="268" 
d="M74 -97l57 261h59l-75 -261h-41z" />
    <glyph glyph-name="quotedblleft" unicode="&#x201c;" horiz-adv-x="418" 
d="M74 481l75 261h41l-57 -261h-59zM223 481l75 261h41l-57 -261h-59z" />
    <glyph glyph-name="quotedblright" unicode="&#x201d;" horiz-adv-x="418" 
d="M78 481l57 261h59l-75 -261h-41zM227 481l57 261h59l-75 -261h-41z" />
    <glyph glyph-name="quotedblbase" unicode="&#x201e;" horiz-adv-x="418" 
d="M78 -97l57 261h59l-75 -261h-41zM227 -97l57 261h59l-75 -261h-41z" />
    <glyph glyph-name="dagger" unicode="&#x2020;" horiz-adv-x="612" 
d="M279 -220v649h-211v52h211v243h54v-243h211v-52h-211v-649h-54z" />
    <glyph glyph-name="daggerdbl" unicode="&#x2021;" horiz-adv-x="612" 
d="M68 23v52h211v354h-211v52h211v243h54v-243h211v-52h-211v-354h211v-52h-211v-243h-54v243h-211z" />
    <glyph glyph-name="bullet" unicode="&#x2022;" horiz-adv-x="389" 
d="M94 297q0 41 29.5 70.5t70.5 29.5t70.5 -29.5t29.5 -70.5t-29.5 -70.5t-70.5 -29.5t-70.5 29.5t-29.5 70.5z" />
    <glyph glyph-name="ellipsis" unicode="&#x2026;" horiz-adv-x="834" 
d="M100 39q0 21 14.5 35.5t35.5 14.5t35.5 -14.5t14.5 -35.5t-14.5 -35.5t-35.5 -14.5t-35.5 14.5t-14.5 35.5zM367 39q0 21 14.5 35.5t35.5 14.5t35.5 -14.5t14.5 -35.5t-14.5 -35.5t-35.5 -14.5t-35.5 14.5t-14.5 35.5zM634 39q0 21 14.5 35.5t35.5 14.5t35.5 -14.5
t14.5 -35.5t-14.5 -35.5t-35.5 -14.5t-35.5 14.5t-14.5 35.5z" />
    <glyph glyph-name="perthousand" unicode="&#x2030;" horiz-adv-x="1348" 
d="M58 548q0 80 49 133.5t122 53.5t122 -53.5t49 -133.5t-49 -133.5t-122 -53.5t-122 53.5t-49 133.5zM206 0l471 724h49l-471 -724h-49zM102 548q0 -61 37 -102.5t90 -41.5t90 41.5t37 102.5t-37 102.5t-90 41.5t-90 -41.5t-37 -102.5zM1291 176q0 -80 -49 -133.5
t-122 -53.5t-122 53.5t-49 133.5t49 133.5t122 53.5t122 -53.5t49 -133.5zM874 176q0 -80 -49 -133.5t-122 -53.5t-122 53.5t-49 133.5t49 133.5t122 53.5t122 -53.5t49 -133.5zM1247 176q0 61 -37 102.5t-90 41.5t-90 -41.5t-37 -102.5t37 -102.5t90 -41.5t90 41.5
t37 102.5zM830 176q0 61 -37 102.5t-90 41.5t-90 -41.5t-37 -102.5t37 -102.5t90 -41.5t90 41.5t37 102.5z" />
    <glyph glyph-name="guilsinglleft" unicode="&#x2039;" horiz-adv-x="343" 
d="M226 27l-168 219l168 219h54l-168 -219l168 -219h-54z" />
    <glyph glyph-name="guilsinglright" unicode="&#x203a;" horiz-adv-x="343" 
d="M63 27l168 219l-168 219h54l168 -219l-168 -219h-54z" />
    <glyph glyph-name="fraction" unicode="&#x2044;" horiz-adv-x="350" 
d="M-37 -13h-56l480 737h56z" />
    <glyph glyph-name="four.superior" unicode="&#x2074;" horiz-adv-x="404" 
d="M250 422v110h-233l-1 2l236 322h46v-283h87v-41h-87v-110h-48zM184 695l-88 -120l1 -2h153v99q0 76 1 114l-2 1q-33 -48 -65 -92z" />
    <glyph glyph-name="Euro" unicode="&#x20ac;" horiz-adv-x="602" 
d="M14 260v49h81q-3 25 -3 54q0 35 4 62h-82v48h91q29 120 118 191t222 71q54 0 106 -15v-61q-54 19 -109 19q-103 0 -175 -55.5t-99 -149.5h226v-48h-237q-4 -27 -4 -62q0 -29 3 -54h238v-49h-228q26 -98 98.5 -156t177.5 -58q68 0 121 22v-61q-54 -18 -123 -18
q-134 0 -222 74t-115 197h-89z" />
    <glyph glyph-name="litre" unicode="&#x2113;" horiz-adv-x="430" 
d="M59 144l-33 57q56 52 80 77v258q0 102 40.5 158t102.5 56q53 0 84.5 -41.5t31.5 -113.5q0 -157 -159 -328v-66q0 -75 14.5 -105.5t46.5 -30.5q40 0 88 55l37 -48q-60 -86 -148 -86q-69 0 -103 46t-34 123v35q-43 -43 -48 -46zM206 363q85 115 85 232q0 81 -38 81
q-47 0 -47 -132v-181z" />
    <glyph glyph-name="trademark" unicode="&#x2122;" horiz-adv-x="644" 
d="M302 434v290h37l101 -146l103 146h37v-290h-37v225l-2 1l-101 -143l-100 145l-2 -1v-227h-36zM123 434v256h-92v34h221v-34h-92v-256h-37z" />
    <glyph glyph-name="Omega" unicode="&#x2126;" horiz-adv-x="742" 
d="M371 735q144 0 232 -95t88 -239q0 -94 -41 -182.5t-115 -160.5l1 -2h186v-56h-270v42q178 156 178 354q0 124 -69.5 203t-189.5 79t-189.5 -79t-69.5 -203q0 -198 178 -354v-42h-270v56h186l1 2q-74 72 -115 160.5t-41 182.5q0 144 88 239t232 95z" />
    <glyph glyph-name="estimated" unicode="&#x212e;" horiz-adv-x="757" 
d="M176 137q0 -41 35.5 -71t81 -42.5t91.5 -12.5q67 0 131.5 30.5t106.5 87.5l33 -7q-102 -139 -274 -139q-146 0 -241.5 93t-95.5 229t95.5 229.5t240.5 93.5q85 0 157.5 -32.5t122 -101.5t53.5 -162q1 -23 -4 -27.5t-28 -4.5h-473q-25 0 -28.5 -4t-3.5 -28v-131zM208 328
h342q25 0 28.5 4t3.5 28v125q0 48 -59.5 81.5t-143.5 33.5t-143.5 -33.5t-59.5 -81.5v-125q0 -24 3.5 -28t28.5 -4z" />
    <glyph glyph-name="partialdiff" unicode="&#x2202;" horiz-adv-x="558" 
d="M40 204q0 100 61.5 172t165.5 72q101 0 180 -70l1 1q-1 45 -5 86.5t-17 90.5t-33 84t-55.5 58.5t-82.5 23.5q-68 0 -128 -40v56q62 38 137 38q65 0 113.5 -33t75.5 -90t40 -125.5t13 -148.5q0 -82 -13.5 -150.5t-42.5 -123.5t-79 -85.5t-117 -30.5q-97 0 -155.5 59.5
t-58.5 155.5zM99 205q0 -72 42 -117t114 -45q91 0 137.5 73t53.5 201q-72 79 -172 79q-84 0 -129.5 -57t-45.5 -134z" />
    <glyph glyph-name="Delta" unicode="&#x2206;" horiz-adv-x="675" 
d="M22 0v40l285 684h61l285 -684v-40h-631zM262 470l-172 -414h493l-173 418q-46 112 -72 177h-2q-34 -85 -74 -181z" />
    <glyph glyph-name="product" unicode="&#x220f;" horiz-adv-x="779" 
d="M165 -116v784h-128v56h705v-56h-128v-784h-61v784h-327v-784h-61z" />
    <glyph glyph-name="summation" unicode="&#x2211;" horiz-adv-x="611" 
d="M51 -75l244 402l-237 356v41h479v-56h-402l226 -340l-235 -388h428v-56h-503v41z" />
    <glyph glyph-name="minus" unicode="&#x2212;" horiz-adv-x="583" 
d="M53 338v48h477v-48h-477z" />
    <glyph glyph-name="radical" unicode="&#x221a;" horiz-adv-x="666" 
d="M150 493l128 -334q36 -94 65 -174h2q32 98 59 176l245 717h51l-341 -994h-28l-211 547l-108 -45l-17 42z" />
    <glyph glyph-name="infinity" unicode="&#x221e;" horiz-adv-x="758" 
d="M378 204h-2q-67 -138 -176 -138q-74 0 -119.5 54.5t-45.5 131.5q0 78 45 132t122 54q110 0 178 -138h2q67 138 176 138q74 0 119.5 -54.5t45.5 -131.5q0 -78 -45 -132t-122 -54q-110 0 -178 138zM557 390q-55 0 -88.5 -35.5t-64.5 -101.5q28 -66 63 -102.5t90 -36.5
q53 0 85 39t32 99q0 59 -31.5 98.5t-85.5 39.5zM201 114q55 0 88.5 35.5t64.5 101.5q-28 66 -63 102.5t-90 36.5q-53 0 -85 -39t-32 -99q0 -59 31.5 -98.5t85.5 -39.5z" />
    <glyph glyph-name="integral" unicode="&#x222b;" horiz-adv-x="345" 
d="M147 585l108 -518q13 -65 13 -102q0 -73 -43.5 -110.5t-114.5 -37.5q-28 0 -56 5v54q28 -5 54 -5q102 0 102 98q0 29 -12 89l-108 518q-13 65 -13 102q0 73 43.5 110.5t114.5 37.5q28 0 56 -5v-54q-28 5 -54 5q-102 0 -102 -98q0 -29 12 -89z" />
    <glyph glyph-name="approxequal" unicode="&#x2248;" horiz-adv-x="583" 
d="M181 504q41 0 114.5 -28t106.5 -28q32 0 52 14.5t38 44.5l17 -38q-35 -69 -106 -69q-41 0 -114.5 28t-106.5 28q-32 0 -52 -14.5t-38 -44.5l-17 38q35 69 106 69zM181 324q41 0 114.5 -28t106.5 -28q32 0 52 14.5t38 44.5l17 -38q-35 -69 -106 -69q-41 0 -114.5 28
t-106.5 28q-32 0 -52 -14.5t-38 -44.5l-17 38q35 69 106 69z" />
    <glyph glyph-name="notequal" unicode="&#x2260;" horiz-adv-x="583" 
d="M53 436v48h310l123 155l32 -25l-103 -130h115v-48h-154l-117 -148h271v-48h-310l-123 -155l-32 25l103 130h-115v48h154l117 148h-271z" />
    <glyph glyph-name="lessequal" unicode="&#x2264;" horiz-adv-x="672" 
d="M94 363v38l485 218v-51l-409 -185v-2l409 -185v-51zM94 0v44h485v-44h-485z" />
    <glyph glyph-name="greaterequal" unicode="&#x2265;" horiz-adv-x="672" 
d="M579 401v-38l-485 -218v51l409 185v2l-409 185v51zM579 44v-44h-485v44h485z" />
    <glyph glyph-name="lozenge" unicode="&#x25ca;" horiz-adv-x="533" 
d="M250 -19l-185 379l185 378h32l185 -379l-185 -378h-32zM265 51h2l151 308l-151 309h-2l-151 -308z" />
    <glyph glyph-name="commaaccent" unicode="&#xf6c3;" horiz-adv-x="486" 
d="M242 -54h58l-72 -218h-43z" />
    <glyph glyph-name="apple" unicode="&#xf8ff;" horiz-adv-x="1011" 
d="M486 674q-2 12 -2 27q0 63 51 120t120 66l15 1q2 -14 2 -25q0 -74 -56 -132q-56 -57 -130 -57zM211 96q-48 64 -77 148t-29 169q0 124 67 197q68 74 177 74q39 0 94 -21q42 -16 56 -16q12 0 79 23q42 14 88 14q116 0 187 -87q-101 -74 -101 -176q0 -118 125 -183
q-35 -99 -98 -171t-116 -72q-21 0 -82 22q-46 17 -77 17q-30 0 -65 -13q-68 -26 -87 -26q-66 0 -141 101z" />
    <glyph glyph-name="ff" unicode="&#xfb00;" horiz-adv-x="632" 
d="M109 0v440h-84v52h84v107q0 98 42 139q38 37 106 37q35 0 64 -9v-53q-27 8 -62 8q-52 0 -71.5 -29t-19.5 -85v-115h245v107q0 98 42 139q38 37 106 37q35 0 64 -9v-53q-27 8 -62 8q-52 0 -71.5 -29t-19.5 -85v-115h137v-52h-137v-440h-59v440h-245v-440h-59z" />
    <glyph glyph-name="commaaccent.alt" horiz-adv-x="486" 
d="M186 556l72 218h43l-57 -218h-58z" />
    <glyph glyph-name="hyphen.cap" horiz-adv-x="358" 
d="M63 335v52h233v-52h-233z" />
    <glyph glyph-name="exclamdown.cap" horiz-adv-x="314" 
d="M206 686q0 -20 -14.5 -34.5t-34.5 -14.5t-34.5 14.5t-14.5 34.5t14.5 34.5t34.5 14.5t34.5 -14.5t14.5 -34.5zM176 514l14 -514h-66l14 514h38z" />
    <glyph glyph-name="questiondown.cap" horiz-adv-x="466" 
d="M328 687q0 -20 -14.5 -34.5t-34.5 -14.5t-34.5 14.5t-14.5 34.5t14.5 34.5t34.5 14.5t34.5 -14.5t14.5 -34.5zM321 537l19 -165q-99 0 -162 -44.5t-63 -122.5q0 -68 47 -113t118 -45q68 0 129 39l6 -60q-62 -36 -138 -36q-95 0 -159 61t-64 151q0 89 63 148.5t157 68.5
l-8 118h55z" />
    <glyph glyph-name="guilsinglleft.cap" horiz-adv-x="343" 
d="M226 143l-168 219l168 219h54l-168 -219l168 -219h-54z" />
    <glyph glyph-name="guilsinglright.cap" horiz-adv-x="343" 
d="M63 143l168 219l-168 219h54l168 -219l-168 -219h-54z" />
    <glyph glyph-name="guillemotleft.cap" horiz-adv-x="540" 
d="M226 143l-168 219l168 219h54l-168 -219l168 -219h-54zM423 143l-168 219l168 219h54l-168 -219l168 -219h-54z" />
    <glyph glyph-name="guillemotright.cap" horiz-adv-x="540" 
d="M63 143l168 219l-168 219h54l168 -219l-168 -219h-54zM260 143l168 219l-168 219h54l168 -219l-168 -219h-54z" />
    <glyph glyph-name="endash.cap" horiz-adv-x="498" 
d="M53 337v48h392v-48h-392z" />
    <glyph glyph-name="emdash.cap" horiz-adv-x="790" 
d="M38 340v43h714v-43h-714z" />
    <glyph glyph-name="parenleft.cap" horiz-adv-x="325" 
d="M82 362q0 150 40.5 271.5t104.5 206.5h59q-67 -88 -108.5 -211t-41.5 -267t41.5 -267t108.5 -211h-59q-64 85 -104.5 206.5t-40.5 271.5z" />
    <glyph glyph-name="parenright.cap" horiz-adv-x="325" 
d="M243 362q0 -150 -40.5 -271.5t-104.5 -206.5h-59q67 88 108.5 211t41.5 267t-41.5 267t-108.5 211h59q64 -85 104.5 -206.5t40.5 -271.5z" />
    <glyph glyph-name="bracketleft.cap" horiz-adv-x="338" 
d="M150 -68h149v-48h-203v956h203v-48h-149v-860z" />
    <glyph glyph-name="bracketright.cap" horiz-adv-x="338" 
d="M39 -68h149v860h-149v48h203v-956h-203v48z" />
    <glyph glyph-name="braceleft.cap" horiz-adv-x="360" 
d="M142 27v219q0 52 -15.5 72t-70.5 20h-24v48h24q55 0 70.5 20t15.5 72v219q0 80 31.5 117t102.5 37q33 0 56 -5v-48q-23 5 -51 5q-49 0 -67 -25.5t-18 -86.5v-211q0 -50 -12.5 -78.5t-47.5 -38.5v-2q35 -10 47.5 -38.5t12.5 -78.5v-211q0 -61 18 -86.5t67 -25.5q28 0 51 5
v-48q-23 -5 -56 -5q-71 0 -102.5 37t-31.5 117z" />
    <glyph glyph-name="braceright.cap" horiz-adv-x="360" 
d="M218 246v-219q0 -80 -31.5 -117t-102.5 -37q-33 0 -56 5v48q23 -5 51 -5q49 0 67 25.5t18 86.5v211q0 50 12.5 78.5t47.5 38.5v2q-35 10 -47.5 38.5t-12.5 78.5v211q0 61 -18 86.5t-67 25.5q-28 0 -51 -5v48q23 5 56 5q71 0 102.5 -37t31.5 -117v-219q0 -52 15.5 -72
t70.5 -20h24v-48h-24q-55 0 -70.5 -20t-15.5 -72z" />
    <glyph glyph-name="i.TRK" horiz-adv-x="233" 
d="M87 0v492h59v-492h-59z" />
    <glyph glyph-name="tilde.cap" horiz-adv-x="486" 
d="M237 856q-43 26 -66 26q-44 0 -78 -52l-2 1v56q29 44 79 44q32 0 79 -27q43 -26 66 -26q44 0 78 52l2 -1v-56q-29 -44 -79 -44q-35 0 -79 27z" />
    <glyph glyph-name="dieresis.cap" horiz-adv-x="486" 
d="M335 836q-17 0 -29 12t-12 29t12 29t29 12t29 -12t12 -29t-12 -29t-29 -12zM151 836q-17 0 -29 12t-12 29t12 29t29 12t29 -12t12 -29t-12 -29t-29 -12z" />
    <glyph glyph-name="macron.cap" horiz-adv-x="486" 
d="M111 854v46h264v-46h-264z" />
    <glyph glyph-name="breve.cap" horiz-adv-x="486" 
d="M243 805q-63 0 -96.5 40.5t-35.5 102.5h39q10 -104 93 -104t93 104h39q-2 -62 -35.5 -102.5t-96.5 -40.5z" />
    <glyph glyph-name="ring.cap" horiz-adv-x="486" 
d="M131 897q0 47 32 79t80 32t80 -32t32 -79t-32 -79t-80 -32t-80 32t-32 79zM169 897q0 -32 20.5 -53.5t53.5 -21.5t53.5 21.5t20.5 53.5t-20.5 53.5t-53.5 21.5t-53.5 -21.5t-20.5 -53.5z" />
    <glyph glyph-name="hungarumlaut.cap" horiz-adv-x="486" 
d="M261 795l89 164h54l-102 -164h-41zM134 795l89 164h54l-102 -164h-41z" />
    <glyph glyph-name="dotaccent.cap" horiz-adv-x="486" 
d="M243 836q-17 0 -29 12t-12 29t12 29t29 12t29 -12t12 -29t-12 -29t-29 -12z" />
    <glyph glyph-name="grave.cap" horiz-adv-x="486" 
d="M248 795l-105 164h65l86 -164h-46z" />
    <glyph glyph-name="acute.cap" horiz-adv-x="486" 
d="M343 959l-105 -164h-46l86 164h65z" />
    <glyph glyph-name="circumflex.cap" horiz-adv-x="486" 
d="M96 795l116 164h62l116 -164h-50l-97 125l-97 -125h-50z" />
    <glyph glyph-name="caron.cap" horiz-adv-x="486" 
d="M390 959l-116 -164h-62l-116 164h50l97 -125l97 125h50z" />
    <glyph glyph-name="a.alt" 
d="M51 239q0 112 70 188t182 76q71 0 145 -37l57 10v-476h-59v45l-2 1q-64 -57 -157 -57q-101 0 -168.5 69.5t-67.5 180.5zM110 243q0 -88 51 -144.5t134 -56.5q90 0 151 63v304q-69 41 -143 41q-87 0 -140 -59t-53 -148z" />
    <glyph glyph-name="agrave.alt" 
d="M51 239q0 112 70 188t182 76q71 0 145 -37l57 10v-476h-59v45l-2 1q-64 -57 -157 -57q-101 0 -168.5 69.5t-67.5 180.5zM110 243q0 -88 51 -144.5t134 -56.5q90 0 151 63v304q-69 41 -143 41q-87 0 -140 -59t-53 -148zM308 563l-105 164h65l86 -164h-46z" />
    <glyph glyph-name="aacute.alt" 
d="M403 727l-105 -164h-46l86 164h65zM51 239q0 112 70 188t182 76q71 0 145 -37l57 10v-476h-59v45l-2 1q-64 -57 -157 -57q-101 0 -168.5 69.5t-67.5 180.5zM110 243q0 -88 51 -144.5t134 -56.5q90 0 151 63v304q-69 41 -143 41q-87 0 -140 -59t-53 -148z" />
    <glyph glyph-name="acircumflex.alt" 
d="M156 563l116 164h62l116 -164h-50l-97 125l-97 -125h-50zM51 239q0 112 70 188t182 76q71 0 145 -37l57 10v-476h-59v45l-2 1q-64 -57 -157 -57q-101 0 -168.5 69.5t-67.5 180.5zM110 243q0 -88 51 -144.5t134 -56.5q90 0 151 63v304q-69 41 -143 41q-87 0 -140 -59
t-53 -148z" />
    <glyph glyph-name="atilde.alt" 
d="M51 239q0 112 70 188t182 76q71 0 145 -37l57 10v-476h-59v45l-2 1q-64 -57 -157 -57q-101 0 -168.5 69.5t-67.5 180.5zM110 243q0 -88 51 -144.5t134 -56.5q90 0 151 63v304q-69 41 -143 41q-87 0 -140 -59t-53 -148zM297 624q-43 26 -66 26q-44 0 -78 -52l-2 1v56
q29 44 79 44q32 0 79 -27q43 -26 66 -26q44 0 78 52l2 -1v-56q-29 -44 -79 -44q-35 0 -79 27z" />
    <glyph glyph-name="adieresis.alt" 
d="M395 604q-17 0 -29 12t-12 29t12 29t29 12t29 -12t12 -29t-12 -29t-29 -12zM211 604q-17 0 -29 12t-12 29t12 29t29 12t29 -12t12 -29t-12 -29t-29 -12zM51 239q0 112 70 188t182 76q71 0 145 -37l57 10v-476h-59v45l-2 1q-64 -57 -157 -57q-101 0 -168.5 69.5
t-67.5 180.5zM110 243q0 -88 51 -144.5t134 -56.5q90 0 151 63v304q-69 41 -143 41q-87 0 -140 -59t-53 -148z" />
    <glyph glyph-name="amacron.alt" 
d="M51 239q0 112 70 188t182 76q71 0 145 -37l57 10v-476h-59v45l-2 1q-64 -57 -157 -57q-101 0 -168.5 69.5t-67.5 180.5zM110 243q0 -88 51 -144.5t134 -56.5q90 0 151 63v304q-69 41 -143 41q-87 0 -140 -59t-53 -148zM171 622v46h264v-46h-264z" />
    <glyph glyph-name="abreve.alt" 
d="M51 239q0 112 70 188t182 76q71 0 145 -37l57 10v-476h-59v45l-2 1q-64 -57 -157 -57q-101 0 -168.5 69.5t-67.5 180.5zM110 243q0 -88 51 -144.5t134 -56.5q90 0 151 63v304q-69 41 -143 41q-87 0 -140 -59t-53 -148zM303 573q-63 0 -96.5 40.5t-35.5 102.5h39
q10 -104 93 -104t93 104h39q-2 -62 -35.5 -102.5t-96.5 -40.5z" />
    <glyph glyph-name="aring.alt" 
d="M191 665q0 47 32 79t80 32t80 -32t32 -79t-32 -79t-80 -32t-80 32t-32 79zM229 665q0 -32 20.5 -53.5t53.5 -21.5t53.5 21.5t20.5 53.5t-20.5 53.5t-53.5 21.5t-53.5 -21.5t-20.5 -53.5zM51 239q0 112 70 188t182 76q71 0 145 -37l57 10v-476h-59v45l-2 1
q-64 -57 -157 -57q-101 0 -168.5 69.5t-67.5 180.5zM110 243q0 -88 51 -144.5t134 -56.5q90 0 151 63v304q-69 41 -143 41q-87 0 -140 -59t-53 -148z" />
    <glyph glyph-name="ae.alt" horiz-adv-x="951" 
d="M51 239q0 113 69.5 188.5t180.5 75.5q68 0 142 -36l57 10v-74l2 -1q28 48 76.5 74.5t105.5 26.5q90 0 151.5 -62.5t61.5 -168.5q0 -20 -2 -42h-394q7 -86 62.5 -137t140.5 -51q88 0 164 57v-64q-72 -46 -168 -46q-136 0 -210 101q-79 -101 -202 -101q-103 0 -170 69.5
t-67 180.5zM680 450q-67 0 -119 -46.5t-60 -124.5h339v1q0 79 -47.5 124.5t-112.5 45.5zM291 42q104 0 175 89q-24 51 -24 116v162q-70 41 -141 41q-86 0 -138.5 -58.5t-52.5 -148.5q0 -88 50.5 -144.5t130.5 -56.5z" />
    <glyph glyph-name="aeacute.alt" horiz-adv-x="951" 
d="M601 727l-105 -164h-46l86 164h65zM51 239q0 113 69.5 188.5t180.5 75.5q68 0 142 -36l57 10v-74l2 -1q28 48 76.5 74.5t105.5 26.5q90 0 151.5 -62.5t61.5 -168.5q0 -20 -2 -42h-394q7 -86 62.5 -137t140.5 -51q88 0 164 57v-64q-72 -46 -168 -46q-136 0 -210 101
q-79 -101 -202 -101q-103 0 -170 69.5t-67 180.5zM680 450q-67 0 -119 -46.5t-60 -124.5h339v1q0 79 -47.5 124.5t-112.5 45.5zM291 42q104 0 175 89q-24 51 -24 116v162q-70 41 -141 41q-86 0 -138.5 -58.5t-52.5 -148.5q0 -88 50.5 -144.5t130.5 -56.5z" />
    <glyph glyph-name="aogonek.alt" 
d="M369 -139q0 72 77 139v45l-2 1q-64 -57 -157 -57q-101 0 -168.5 69.5t-67.5 180.5q0 112 70 188t182 76q71 0 145 -37l57 10v-476q-85 -63 -85 -131q0 -28 15 -42t41 -14q18 0 38 6v-43q-24 -7 -47 -7q-45 0 -71.5 25.5t-26.5 66.5zM110 243q0 -88 51 -144.5t134 -56.5
q90 0 151 63v304q-69 41 -143 41q-87 0 -140 -59t-53 -148z" />
    <glyph glyph-name="ordfeminine.alt" horiz-adv-x="394" 
d="M40 563q0 74 46 123t120 49q44 0 88 -21l46 8v-314h-46v27l-2 1q-42 -35 -98 -35q-66 0 -110 45t-44 117zM87 566q0 -54 31.5 -89.5t82.5 -35.5q53 0 93 38v190q-44 25 -88 25q-54 0 -86.5 -36.5t-32.5 -91.5z" />
    <glyph glyph-name="periodcentered.cap" horiz-adv-x="299" 
d="M100 362q0 21 14.5 35.5t35.5 14.5t35.5 -14.5t14.5 -35.5t-14.5 -35.5t-35.5 -14.5t-35.5 14.5t-14.5 35.5z" />
    <glyph glyph-name="at.cap" horiz-adv-x="814" 
d="M40 362q0 158 104.5 265.5t263.5 107.5q158 0 262.5 -107.5t104.5 -262.5q0 -86 -37 -140.5t-109 -54.5q-80 0 -111 65h-2q-55 -66 -137 -66q-68 0 -112 47t-44 123q0 86 54.5 151t141.5 65q58 0 111 -37l40 7l-18 -205q-1 -10 -1 -21q0 -44 21.5 -68.5t61.5 -24.5
q48 0 76 39t28 116q0 143 -93 240.5t-237 97.5t-237.5 -97.5t-93.5 -239.5t93.5 -239.5t237.5 -97.5q126 0 217 78l20 -31q-99 -83 -238 -83q-158 0 -262.5 108t-104.5 265zM385 210q75 0 122 68q-2 10 0 41l14 155q-48 40 -105 40q-64 0 -105.5 -52t-41.5 -121
q0 -59 31.5 -95t84.5 -36z" />
    </font>
</defs>
</svg>
