<?xml version="1.0" standalone="no"?>
<!DOCTYPE svg PUBLIC "-//W3C//DTD SVG 1.1//EN" "http://www.w3.org/Graphics/SVG/1.1/DTD/svg11.dtd" >
<svg xmlns="http://www.w3.org/2000/svg" xmlns:xlink="http://www.w3.org/1999/xlink" version="1.1">
<metadata>
Created by FontForge 20170731 at Fri Jan  4 23:26:09 2013
 By Aleksey,,,
Copyright (c) 2012 by Rui Abreu, Portugal. All rights reserved.
</metadata>
<defs>
<font id="AzoSans-Medium" horiz-adv-x="518" >
  <font-face 
    font-family="Azo Sans Md"
    font-weight="500"
    font-stretch="normal"
    units-per-em="1000"
    panose-1="2 0 0 0 0 0 0 0 0 0"
    ascent="772"
    descent="-228"
    x-height="492"
    cap-height="724"
    bbox="-102 -272 1300 1016"
    underline-thickness="50"
    underline-position="-220"
    unicode-range="U+000D-FB02"
  />
<missing-glyph horiz-adv-x="646" 
d="M151 604l131 131l213 -212l-101 -101l101 -100l-101 -101l101 -100l-132 -132l-212 213l100 100l-100 101l100 100z" />
    <glyph glyph-name="fi" unicode="fi" horiz-adv-x="621" 
d="M97 0v389h-74v103h74v84q0 109 48 156q44 43 127 43q46 0 79 -12v-102q-34 9 -68 9q-38 0 -51.5 -21.5t-13.5 -61.5v-95h120v-103h-120v-389h-121zM429 0v492h121v-492h-121zM414 655q0 31 22.5 53t53.5 22t53 -22t22 -53t-22.5 -53t-53.5 -22t-53 22t-22 53z" />
    <glyph glyph-name="fl" unicode="fl" horiz-adv-x="621" 
d="M97 0v389h-74v103h74v84q0 109 48 156q44 43 127 43q46 0 79 -12v-102q-34 9 -68 9q-38 0 -51.5 -21.5t-13.5 -61.5v-95h120v-103h-120v-389h-121zM429 0v764h121v-764h-121z" />
    <glyph glyph-name=".notdef" horiz-adv-x="646" 
d="M151 604l131 131l213 -212l-101 -101l101 -100l-101 -101l101 -100l-132 -132l-212 213l100 100l-100 101l100 100z" />
    <glyph glyph-name=".null" horiz-adv-x="1" 
 />
    <glyph glyph-name=".null" horiz-adv-x="1" 
 />
    <glyph glyph-name="nonmarkingreturn" horiz-adv-x="333" 
 />
    <glyph glyph-name="CR" unicode="&#xd;" horiz-adv-x="353" 
 />
    <glyph glyph-name="space" unicode=" " horiz-adv-x="240" 
 />
    <glyph glyph-name="exclam" unicode="!" horiz-adv-x="300" 
d="M111 232l-31 492h140l-31 -492h-78zM75 64q0 31 22 53t53 22t53 -22t22 -53t-22 -53t-53 -22t-53 22t-22 53z" />
    <glyph glyph-name="quotedbl" unicode="&#x22;" horiz-adv-x="363" 
d="M58 467l-18 275h107l-18 -275h-71zM234 467l-18 275h107l-18 -275h-71z" />
    <glyph glyph-name="numbersign" unicode="#" horiz-adv-x="626" 
d="M560 724l-61 -214h116l-22 -77h-116l-41 -142h116l-22 -77h-116l-61 -214h-82l61 214h-123l-61 -214h-82l61 214h-116l22 77h116l41 142h-116l22 77h116l61 214h82l-61 -214h123l61 214h82zM272 433l-41 -142h123l41 142h-123z" />
    <glyph glyph-name="dollar" unicode="$" horiz-adv-x="586" 
d="M244 -76v126q-90 10 -156 45v123q99 -65 207 -65q48 0 76.5 19t28.5 57q0 16 -6.5 28t-14.5 19t-26 14t-30 10.5t-38 9.5t-39 10q-85 22 -131.5 60.5t-46.5 113.5q0 74 48 120.5t128 58.5v127h95v-126q86 -8 155 -45v-121q-97 63 -202 63q-45 0 -72 -17.5t-27 -52.5
q0 -15 6 -26t14 -18t25 -13.5t28.5 -9.5t37 -9t38.5 -9q87 -23 135 -63t48 -117q0 -78 -50.5 -127t-135.5 -60v-125h-95z" />
    <glyph glyph-name="percent" unicode="%" horiz-adv-x="932" 
d="M187 0l472 724h86l-472 -724h-86zM133 548q0 -46 26 -78t67 -32t67 32t26 78t-26 78t-67 32t-67 -32t-26 -78zM49 548q0 81 49 134t128 53t128 -53t49 -134t-49 -134t-128 -53t-128 53t-49 134zM799 176q0 46 -26 78t-67 32t-67 -32t-26 -78t26 -78t67 -32t67 32t26 78z
M883 176q0 -81 -49 -134t-128 -53t-128 53t-49 134t49 134t128 53t128 -53t49 -134z" />
    <glyph glyph-name="ampersand" unicode="&#x26;" horiz-adv-x="707" 
d="M542 434h124l-101 -267l164 -165l-1 -2h-151l-69 69q-71 -80 -208 -80q-121 0 -187 61.5t-66 147.5q0 118 133 188l10 5l-15 16q-75 77 -75 152q0 76 57 126.5t143 50.5q87 0 142.5 -51.5t55.5 -125.5q0 -99 -101 -163l-35 -23l116 -117zM304 95q82 0 121 59l-161 163
l-27 -14q-69 -37 -69 -101q0 -44 35.5 -75.5t100.5 -31.5zM220 556q0 -37 43 -83l26 -27l36 26q53 36 53 83q0 33 -22.5 53.5t-57.5 20.5q-36 0 -57 -21t-21 -52z" />
    <glyph glyph-name="quotesingle" unicode="'" horiz-adv-x="187" 
d="M58 467l-18 275h107l-18 -275h-71z" />
    <glyph glyph-name="parenleft" unicode="(" horiz-adv-x="362" 
d="M70 265q0 151 40.5 273t105.5 205h115q-67 -88 -108.5 -211t-41.5 -267t41.5 -267t108.5 -211h-115q-65 83 -105.5 205t-40.5 273z" />
    <glyph glyph-name="parenright" unicode=")" horiz-adv-x="362" 
d="M292 265q0 -151 -40.5 -273t-105.5 -205h-115q67 88 108.5 211t41.5 267t-41.5 267t-108.5 211h115q65 -83 105.5 -205t40.5 -273z" />
    <glyph glyph-name="asterisk" unicode="*" horiz-adv-x="453" 
d="M202 580l-15 147h79l-15 -147h-49zM278 524l-14 47l137 60l24 -77zM175 524l-147 30l24 77l137 -60zM309 351l-74 129l40 28l99 -110zM144 351l-65 47l99 110l40 -28z" />
    <glyph glyph-name="plus" unicode="+" horiz-adv-x="594" 
d="M249 116v201h-196v91h196v200h96v-200h196v-91h-196v-201h-96z" />
    <glyph glyph-name="comma" unicode="," horiz-adv-x="300" 
d="M49 -147l56 292h115l-85 -292h-86z" />
    <glyph glyph-name="hyphen" unicode="-" horiz-adv-x="346" 
d="M52 226v102h242v-102h-242z" />
    <glyph glyph-name="period" unicode="." horiz-adv-x="300" 
d="M72 67q0 32 23 55t55 23t55 -23t23 -55t-23 -55t-55 -23t-55 23t-23 55z" />
    <glyph glyph-name="slash" unicode="/" horiz-adv-x="458" 
d="M13 -38l337 800h95l-337 -800h-95z" />
    <glyph glyph-name="zero" unicode="0" horiz-adv-x="624" 
d="M182 362q0 -155 43 -214q33 -44 87 -44t87 44q43 59 43 214t-43 214q-33 44 -87 44t-87 -44q-43 -59 -43 -214zM55 362q0 187 68 280q69 93 189 93t189 -93q68 -93 68 -280t-68 -280q-69 -93 -189 -93t-189 93q-68 93 -68 280z" />
    <glyph glyph-name="one" unicode="1" horiz-adv-x="513" 
d="M228 0v568l-157 -58v119l284 106v-735h-127z" />
    <glyph glyph-name="two" unicode="2" horiz-adv-x="572" 
d="M21 2l230 290q62 78 88 125.5t26 90.5q0 54 -34 83t-91 29q-86 0 -166 -59v122q77 52 176 52q105 0 174 -58.5t69 -158.5q0 -64 -30.5 -126t-95.5 -144l-106 -133l1 -2h257v-113h-497z" />
    <glyph glyph-name="three" unicode="3" horiz-adv-x="563" 
d="M51 51v131q100 -79 199 -79q59 0 95 28.5t36 77.5q0 47 -35.5 74.5t-104.5 27.5h-70v102h67q61 0 94.5 28.5t33.5 75.5q0 48 -34 76t-89 28q-78 0 -149 -45v119q66 40 157 40q105 0 173.5 -56t68.5 -144q0 -57 -30 -100.5t-81 -60.5v-2q61 -17 93.5 -63.5t32.5 -107.5
q0 -94 -72.5 -153t-181.5 -59q-59 0 -113.5 17t-89.5 45z" />
    <glyph glyph-name="four" unicode="4" horiz-adv-x="647" 
d="M10 165l-1 2l371 557h115v-456h119v-103h-119v-165h-125v165h-360zM287 408l-92 -138l1 -2h174v128q0 61 2 139l-2 1q-32 -52 -83 -128z" />
    <glyph glyph-name="five" unicode="5" horiz-adv-x="556" 
d="M51 35l9 121q85 -53 176 -53q66 0 107 29.5t41 79.5q0 35 -21 60t-56 37.5t-70 18t-74 5.5q-44 0 -83 -6l30 397h377l-9 -113h-251l-13 -176q55 -1 105.5 -13t94.5 -36.5t70.5 -69t26.5 -102.5q0 -102 -75.5 -163.5t-195.5 -61.5q-112 0 -189 46z" />
    <glyph glyph-name="six" unicode="6" horiz-adv-x="613" 
d="M295 724h147l-196 -301l2 -2q41 25 94 25q92 0 156 -63t64 -159q0 -101 -73 -168t-185 -67q-111 0 -184 67.5t-73 178.5q0 55 20.5 109t68.5 130zM176 225q0 -51 36.5 -89t93.5 -38q55 0 93 34.5t38 88.5q0 53 -36.5 88.5t-92.5 35.5q-55 0 -93.5 -34t-38.5 -86z" />
    <glyph glyph-name="seven" unicode="7" horiz-adv-x="563" 
d="M106 0l252 611h-313v113h491l1 -2l-298 -722h-133z" />
    <glyph glyph-name="eight" unicode="8" horiz-adv-x="624" 
d="M312 424q48 0 81.5 29t33.5 73t-33 73t-82 29t-82 -29t-33 -73t33.5 -73t81.5 -29zM312 97q55 0 92.5 32.5t37.5 82.5q0 51 -37.5 84.5t-92.5 33.5t-92.5 -33.5t-37.5 -84.5q0 -50 37.5 -82.5t92.5 -32.5zM312 -11q-114 0 -186 61t-72 156q0 61 32 108t91 69v2
q-101 42 -101 150q0 86 66.5 143t169.5 57t169.5 -57t66.5 -143q0 -108 -101 -150v-2q59 -22 91 -69t32 -108q0 -95 -72 -156t-186 -61z" />
    <glyph glyph-name="nine" unicode="9" horiz-adv-x="600" 
d="M307 0h-147l183 294l-1 1q-32 -17 -81 -17q-89 0 -154.5 61.5t-65.5 158.5q0 102 74 169.5t185 67.5q110 0 182.5 -66t72.5 -174q0 -58 -21.5 -111.5t-65.5 -124.5zM296 381q57 0 93 34.5t36 85.5q0 50 -36.5 87.5t-92.5 37.5q-53 0 -91.5 -34.5t-38.5 -88.5
q0 -52 36 -87t94 -35z" />
    <glyph glyph-name="colon" unicode=":" horiz-adv-x="300" 
d="M75 64q0 31 22 53t53 22t53 -22t22 -53t-22 -53t-53 -22t-53 22t-22 53zM75 428q0 31 22 53t53 22t53 -22t22 -53t-22 -53t-53 -22t-53 22t-22 53z" />
    <glyph glyph-name="semicolon" unicode=";" horiz-adv-x="300" 
d="M49 -147l56 292h115l-85 -292h-86zM74 427q0 31 22 53.5t54 22.5t54 -22.5t22 -53.5t-22 -53.5t-54 -22.5t-54 22.5t-22 53.5z" />
    <glyph glyph-name="less" unicode="&#x3c;" horiz-adv-x="701" 
d="M86 329v66l530 214v-97l-369 -149v-2l369 -149v-97z" />
    <glyph glyph-name="equal" unicode="=" horiz-adv-x="594" 
d="M54 302h486v-91h-486v91zM540 423h-486v91h486v-91z" />
    <glyph glyph-name="greater" unicode="&#x3e;" horiz-adv-x="701" 
d="M616 395v-66l-530 -214v97l369 149v2l-369 149v97z" />
    <glyph glyph-name="question" unicode="?" horiz-adv-x="491" 
d="M134 207l-23 179q98 0 155 30t57 92q0 48 -33 79.5t-85 31.5q-68 0 -135 -46l-15 117q65 45 158 45q102 0 170 -63t68 -155q0 -87 -61 -147.5t-146 -70.5l2 -92h-112zM127 64q0 31 22 53t53 22t53 -22t22 -53t-22 -53t-53 -22t-53 22t-22 53z" />
    <glyph glyph-name="at" unicode="@" horiz-adv-x="801" 
d="M615 54q-79 0 -118 57h-2q-50 -58 -128 -58q-69 0 -113.5 48.5t-44.5 124.5q0 85 54 149t141 64q54 0 100 -32l69 12l-17 -197q-1 -11 -1 -21q0 -40 17.5 -64t51.5 -24q40 0 64.5 34t24.5 101q0 130 -86 222.5t-225 92.5t-226 -92.5t-87 -224.5t86 -224.5t225 -92.5
q122 0 208 73l32 -49q-98 -80 -238 -80q-161 0 -267 107t-106 265q0 160 106 267t266 107t266 -106.5t106 -259.5q0 -92 -41.5 -145.5t-116.5 -53.5zM381 124q58 0 93 48q-2 21 1 60l9 104q-35 33 -80 33q-50 0 -81 -43.5t-31 -98.5q0 -46 23.5 -74.5t65.5 -28.5z" />
    <glyph glyph-name="A" unicode="A" horiz-adv-x="725" 
d="M425 724l296 -724h-135l-69 177h-312l-70 -177h-131l297 724h124zM288 390l-42 -109h230l-42 109q-42 109 -72 194h-2q-35 -99 -72 -194z" />
    <glyph glyph-name="B" unicode="B" horiz-adv-x="637" 
d="M74 0v724h202q139 0 205 -39q85 -50 85 -146q0 -110 -109 -148v-2q67 -17 102.5 -61.5t35.5 -111.5q0 -112 -95 -170q-75 -46 -224 -46h-202zM201 416h113q56 0 90.5 24.5t34.5 73.5q0 53 -45 79q-35 20 -126 20h-67v-197zM201 111h81q104 0 144 26q42 27 42 82
q0 52 -38.5 79t-111.5 27h-117v-214z" />
    <glyph glyph-name="C" unicode="C" horiz-adv-x="681" 
d="M38 360q0 159 108 267t278 108q111 0 202 -48v-132q-91 65 -202 65q-114 0 -186.5 -73.5t-72.5 -184.5t73.5 -184t192.5 -73q114 0 206 70v-134q-89 -52 -212 -52q-169 0 -278 106t-109 265z" />
    <glyph glyph-name="D" unicode="D" horiz-adv-x="739" 
d="M74 0v724h201q178 0 280 -66q72 -46 111 -123t39 -171q0 -88 -34.5 -162t-97.5 -121q-107 -81 -314 -81h-185zM201 113h69q144 0 215 52q93 68 93 198q0 66 -27 118t-73 84q-67 46 -209 46h-68v-498z" />
    <glyph glyph-name="E" unicode="E" horiz-adv-x="556" 
d="M74 0v724h432v-113h-305v-180h265v-108h-265v-210h315v-113h-442z" />
    <glyph glyph-name="F" unicode="F" horiz-adv-x="561" 
d="M74 0v724h443v-113h-316v-194h275v-108h-275v-309h-127z" />
    <glyph glyph-name="G" unicode="G" horiz-adv-x="736" 
d="M38 360q0 161 109.5 268t279.5 107q124 0 222 -58v-133q-100 76 -221 76q-116 0 -189.5 -74.5t-73.5 -184.5q0 -109 72 -184t192 -75q68 0 118 25v139h-144v108h269v-318q-109 -67 -249 -67q-167 0 -276 105t-109 266z" />
    <glyph glyph-name="H" unicode="H" horiz-adv-x="755" 
d="M74 0v724h127v-292h353v292h127v-724h-127v319h-353v-319h-127z" />
    <glyph glyph-name="I" unicode="I" horiz-adv-x="274" 
d="M74 0v724h127v-724h-127z" />
    <glyph glyph-name="J" unicode="J" horiz-adv-x="397" 
d="M200 216v508h127v-503q0 -119 -44 -171q-52 -61 -156 -61q-59 0 -106 20v114q53 -21 98 -21q50 0 65.5 27t15.5 87z" />
    <glyph glyph-name="K" unicode="K" horiz-adv-x="651" 
d="M74 0v724h127v-324l2 -1l285 325h153l-299 -336l325 -388h-160l-304 368l-2 -1v-367h-127z" />
    <glyph glyph-name="L" unicode="L" horiz-adv-x="551" 
d="M74 0v724h127v-611h329v-113h-456z" />
    <glyph glyph-name="M" unicode="M" horiz-adv-x="864" 
d="M74 0v724h123l236 -337l236 337h121v-724h-127v358q0 107 1 157l-2 1q-18 -27 -96 -140l-136 -194l-136 194q-78 113 -96 140l-2 -1q1 -50 1 -157v-358h-123z" />
    <glyph glyph-name="N" unicode="N" horiz-adv-x="780" 
d="M196 0h-123v724h120l262 -349q66 -88 129 -175l2 1q-2 68 -2 219v304h123v-724h-120l-262 349q-66 88 -129 175l-2 -1q2 -68 2 -219v-304z" />
    <glyph glyph-name="O" unicode="O" horiz-adv-x="820" 
d="M410 105q105 0 175.5 74t70.5 183t-70.5 183t-175.5 74t-175.5 -74t-70.5 -183t70.5 -183t175.5 -74zM410 -11q-159 0 -266 107t-107 266t107 266t266 107t266 -107t107 -266t-107 -266t-266 -107z" />
    <glyph glyph-name="P" unicode="P" horiz-adv-x="631" 
d="M74 0v724h202q145 0 215 -38q110 -59 110 -187q0 -123 -101 -184q-72 -43 -237 -43h-62v-272h-127zM201 378h72q111 0 150 23q51 30 51 94q0 68 -59 97q-38 19 -144 19h-70v-233z" />
    <glyph glyph-name="Q" unicode="Q" horiz-adv-x="820" 
d="M552 15v-2q110 -70 216 -111l-119 -70q-125 52 -247 157q-157 3 -261 109.5t-104 263.5q0 159 107 266t266 107t266 -107t107 -266q0 -119 -63 -212.5t-168 -134.5zM410 105q105 0 175.5 74t70.5 183t-70.5 183t-175.5 74t-175.5 -74t-70.5 -183t70.5 -183t175.5 -74z
" />
    <glyph glyph-name="R" unicode="R" horiz-adv-x="650" 
d="M74 0v724h211q137 0 203 -36q104 -56 104 -176q0 -74 -42.5 -127t-118.5 -72l218 -313h-149l-202 299h-97v-299h-127zM201 397h101q86 0 126 29q37 27 37 78q0 59 -52 87q-38 20 -135 20h-77v-214z" />
    <glyph glyph-name="S" unicode="S" horiz-adv-x="569" 
d="M63 42v133q51 -35 111.5 -53.5t109.5 -18.5q57 0 90.5 24.5t33.5 72.5q0 17 -3.5 30t-14.5 24t-18.5 17.5t-28 14.5t-29.5 11t-38 11t-38 11q-44 14 -75.5 28.5t-61 38t-44.5 58t-15 80.5q0 98 66.5 154.5t177.5 56.5q124 0 215 -54v-128q-104 68 -216 68
q-53 0 -84.5 -22t-31.5 -66q0 -16 4 -28.5t14 -22.5t18.5 -16.5t26.5 -13.5t29 -11t35 -10.5t36 -10.5q46 -14 78 -29t63 -39.5t46.5 -60.5t15.5 -84q0 -101 -69 -159.5t-183 -58.5q-123 0 -220 53z" />
    <glyph glyph-name="T" unicode="T" horiz-adv-x="639" 
d="M255 0v611h-237v113h603v-113h-239v-611h-127z" />
    <glyph glyph-name="U" unicode="U" horiz-adv-x="740" 
d="M117 106q-51 76 -51 238v380h127v-372q0 -122 28 -171q43 -76 153 -76q106 0 148 73q29 49 29 172v374h123v-372q0 -171 -52 -248q-78 -115 -253 -115t-252 117z" />
    <glyph glyph-name="V" unicode="V" horiz-adv-x="686" 
d="M278 0l-277 724h136l134 -355q35 -94 73 -203h2q23 66 75 204l134 354h130l-277 -724h-130z" />
    <glyph glyph-name="W" unicode="W" horiz-adv-x="1031" 
d="M231 0l-223 724h135l106 -352q29 -96 55 -191h2q18 66 57 192l109 351h93l109 -352q36 -115 57 -191h2q33 119 55 192l106 351h129l-224 -724h-135l-96 310q-36 118 -52 174h-2q-22 -76 -51 -172l-97 -312h-135z" />
    <glyph glyph-name="X" unicode="X" horiz-adv-x="677" 
d="M-10 0l268 386l-232 338h149l83 -122q38 -56 84 -127h2q41 63 85 129l81 120h142l-232 -338l268 -386h-152l-116 170q-53 77 -84 126h-2q-39 -60 -85 -128l-114 -168h-145z" />
    <glyph glyph-name="Y" unicode="Y" horiz-adv-x="672" 
d="M274 0v327l-280 397h148l105 -153q56 -82 91 -136h2q43 66 92 138l103 151h143l-277 -396v-328h-127z" />
    <glyph glyph-name="Z" unicode="Z" horiz-adv-x="645" 
d="M607 0h-580l-1 2l374 607l-1 2h-346v113h561l1 -2l-374 -607l1 -2h365v-113z" />
    <glyph glyph-name="bracketleft" unicode="[" horiz-adv-x="361" 
d="M197 -123h120v-90h-231v956h231v-90h-120v-776z" />
    <glyph glyph-name="backslash" unicode="\" horiz-adv-x="457" 
d="M349 -38l-337 800h95l337 -800h-95z" />
    <glyph glyph-name="bracketright" unicode="]" horiz-adv-x="361" 
d="M44 -123h120v776h-120v90h231v-956h-231v90z" />
    <glyph glyph-name="asciicircum" unicode="^" horiz-adv-x="567" 
d="M61 362l181 373h83l181 -373h-97l-125 248h-1l-125 -248h-97z" />
    <glyph glyph-name="underscore" unicode="_" horiz-adv-x="490" 
d="M0 -87h490v-59h-490v59z" />
    <glyph glyph-name="grave" unicode="`" 
d="M243 563l-113 164h118l81 -164h-86z" />
    <glyph glyph-name="a" unicode="a" horiz-adv-x="533" 
d="M206 -11q-69 0 -114 33q-55 40 -55 113q0 76 63 119q50 34 138 34q48 0 95 -11v29q0 44 -24 67q-27 24 -83 24q-78 0 -148 -44v110q71 40 166 40q103 0 158 -46q52 -44 52 -131v-189q0 -46 34 -46q13 0 27 7v-95q-26 -12 -60 -12q-68 0 -101 45h-2q-59 -47 -146 -47z
M236 85q55 0 97 30v83q-37 10 -76 10q-42 0 -70.5 -15.5t-28.5 -48.5q0 -29 22 -44t56 -15z" />
    <glyph glyph-name="b" unicode="b" horiz-adv-x="600" 
d="M71 -3v767h121v-297l2 -1q57 37 130 37q99 0 167.5 -69t68.5 -180q0 -115 -74.5 -190t-188.5 -75q-61 0 -123 26zM192 116q45 -26 101 -26q66 0 105.5 45.5t39.5 112.5q0 66 -38 108.5t-102 42.5q-57 0 -106 -35v-248z" />
    <glyph glyph-name="c" unicode="c" horiz-adv-x="512" 
d="M465 144v-118q-67 -37 -154 -37q-118 0 -195 72.5t-77 182.5q0 114 80 186.5t198 72.5q76 0 140 -32v-118q-69 45 -138 45q-70 0 -114 -43.5t-44 -109.5t45 -108t115 -42q82 0 144 49z" />
    <glyph glyph-name="d" unicode="d" horiz-adv-x="602" 
d="M42 237q0 115 73.5 190.5t186.5 75.5q57 0 106 -22l2 1v282h121v-764h-120v28l-2 1q-57 -40 -131 -40q-99 0 -167.5 68.5t-68.5 179.5zM164 243q0 -66 37.5 -109t101.5 -43q55 0 107 34v250q-50 25 -100 25q-67 0 -106.5 -44.5t-39.5 -112.5z" />
    <glyph glyph-name="e" unicode="e" horiz-adv-x="566" 
d="M518 213h-355q11 -60 55 -92t108 -32q88 0 168 57v-111q-73 -46 -180 -46q-120 0 -197 71t-77 185t73.5 186t177.5 72q97 0 163.5 -64t66.5 -177q0 -29 -3 -49zM290 405q-45 0 -80.5 -27.5t-46.5 -80.5h245q-6 53 -40 80.5t-78 27.5z" />
    <glyph glyph-name="f" unicode="f" horiz-adv-x="358" 
d="M97 0v389h-74v103h74v84q0 109 48 156q44 43 127 43q46 0 79 -12v-102q-34 9 -68 9q-38 0 -51.5 -21.5t-13.5 -61.5v-95h120v-103h-120v-389h-121z" />
    <glyph glyph-name="g" unicode="g" horiz-adv-x="597" 
d="M107 -195v120q77 -50 158 -50q64 0 101.5 34.5t37.5 95.5v31l-2 2q-50 -36 -125 -36q-98 0 -166.5 68t-68.5 175q0 109 70.5 183.5t184.5 74.5q68 0 124 -28l104 18v-487q0 -111 -69.5 -174t-186.5 -63q-90 0 -162 36zM164 251q0 -65 38.5 -106.5t100.5 -41.5
q59 0 101 31v238q-45 26 -101 26q-64 0 -101.5 -42.5t-37.5 -104.5z" />
    <glyph glyph-name="h" unicode="h" horiz-adv-x="596" 
d="M71 0v764h121v-325l2 -1q70 65 161 65q83 0 130 -52q42 -45 42 -145v-306h-121v285q0 61 -20 84q-23 27 -64 27q-72 0 -130 -62v-334h-121z" />
    <glyph glyph-name="i" unicode="i" horiz-adv-x="263" 
d="M71 0v492h121v-492h-121zM56 655q0 31 22.5 53t53.5 22t53 -22t22 -53t-22.5 -53t-53.5 -22t-53 22t-22 53z" />
    <glyph glyph-name="j" unicode="j" horiz-adv-x="265" 
d="M73 -40v532h121v-525q0 -106 -39 -148q-46 -50 -135 -50q-39 0 -65 8v103q27 -6 54 -6q38 0 51 21t13 65zM58 655q0 31 22.5 53t53.5 22t53 -22t22 -53t-22.5 -53t-53.5 -22t-53 22t-22 53z" />
    <glyph glyph-name="k" unicode="k" horiz-adv-x="555" 
d="M71 0v764h121v-484l2 -1l196 213h144l-206 -220l225 -272h-149l-210 259l-2 -1v-258h-121z" />
    <glyph glyph-name="l" unicode="l" horiz-adv-x="263" 
d="M71 0v764h121v-764h-121z" />
    <glyph glyph-name="m" unicode="m" horiz-adv-x="917" 
d="M727 0v288q0 57 -22 82q-23 26 -63 26q-67 0 -123 -58q1 -9 1 -30v-308h-121v288q0 59 -20 82q-23 26 -64 26q-66 0 -123 -59v-337h-121v492h120v-52l2 -1q69 64 157 64q47 0 86.5 -19.5t60.5 -57.5q83 77 180 77q81 0 128 -50q43 -47 43 -145v-308h-121z" />
    <glyph glyph-name="n" unicode="n" horiz-adv-x="596" 
d="M71 0v492h120v-53l2 -1q72 65 162 65q83 0 130 -52q42 -45 42 -145v-306h-121v285q0 61 -20 84q-22 27 -65 27q-72 0 -129 -62v-334h-121z" />
    <glyph glyph-name="o" unicode="o" horiz-adv-x="612" 
d="M160 246q0 -64 41.5 -107.5t104.5 -43.5t104.5 43.5t41.5 107.5t-41.5 107.5t-104.5 43.5t-104.5 -43.5t-41.5 -107.5zM39 246q0 109 76.5 183t190.5 74t190.5 -74t76.5 -183t-76.5 -183t-190.5 -74t-190.5 74t-76.5 183z" />
    <glyph glyph-name="p" unicode="p" horiz-adv-x="600" 
d="M192 11v-231h-121v712h120v-28l2 -1q57 40 131 40q99 0 167 -71t68 -183q0 -116 -73.5 -188t-183.5 -72q-60 0 -108 23zM192 117q48 -27 102 -27q65 0 104 43t39 109q0 67 -38.5 112t-101.5 45q-60 0 -105 -36v-246z" />
    <glyph glyph-name="q" unicode="q" horiz-adv-x="602" 
d="M42 241q0 115 74 188.5t186 73.5q66 0 128 -30l101 18v-711h-121v243l-2 1q-57 -35 -126 -35q-101 0 -170.5 70t-69.5 182zM164 245q0 -66 38.5 -110.5t102.5 -44.5q60 0 105 34v249q-52 27 -103 27q-65 0 -104 -44.5t-39 -110.5z" />
    <glyph glyph-name="r" unicode="r" horiz-adv-x="384" 
d="M71 0v492h120v-69l2 -1q53 75 143 75q18 0 33 -4v-116q-20 5 -40 5q-85 0 -137 -73v-309h-121z" />
    <glyph glyph-name="s" unicode="s" horiz-adv-x="503" 
d="M61 27v115q90 -54 189 -54q90 0 90 52q0 14 -6 24t-22 16t-28 8.5t-39.5 7t-42.5 7.5q-78 17 -118.5 49t-40.5 94q1 75 59 116t150 41q102 0 182 -39v-111q-87 51 -183 51q-85 0 -85 -48q0 -14 6 -23t21 -14.5t27.5 -8.5t39 -7.5t41.5 -7.5q79 -16 120.5 -48t41.5 -97
q-1 -77 -60.5 -119t-154.5 -42q-105 0 -187 38z" />
    <glyph glyph-name="t" unicode="t" horiz-adv-x="400" 
d="M149 37q-40 43 -40 141v211h-86v103h86v131l121 21v-152h139v-103h-139v-194q0 -48 13.5 -74.5t51.5 -26.5q36 0 74 21v-103q-39 -23 -100 -23q-77 0 -120 48z" />
    <glyph glyph-name="u" unicode="u" horiz-adv-x="599" 
d="M114 41q-44 48 -44 149v302h121v-282q0 -62 22 -87q23 -27 65 -27q71 0 128 64v332h121v-492h-120v54l-2 1q-71 -66 -160 -66q-84 0 -131 52z" />
    <glyph glyph-name="v" unicode="v" horiz-adv-x="552" 
d="M217 0l-203 492h128l70 -180q37 -95 63 -167h2q31 82 65 166l73 181h123l-202 -492h-119z" />
    <glyph glyph-name="w" unicode="w" horiz-adv-x="825" 
d="M186 0l-169 492h128l62 -188q23 -71 46 -147h2q25 77 50 147l66 188h88l67 -188q32 -91 50 -147h2q17 57 46 147l62 188h122l-169 -492h-119l-61 171q-23 64 -46 137h-2q-22 -70 -46 -137l-60 -171h-119z" />
    <glyph glyph-name="x" unicode="x" horiz-adv-x="523" 
d="M-6 0l194 262l-171 230h137l41 -58q40 -57 67 -97h2q29 43 67 96l42 59h131l-169 -228l194 -264h-139l-66 93q-44 62 -64 92h-2q-13 -20 -64 -92l-66 -93h-134z" />
    <glyph glyph-name="y" unicode="y" horiz-adv-x="553" 
d="M212 -220h-126l131 274l-203 438h131l67 -152q43 -98 66 -155h2q21 51 72 165l64 142h123z" />
    <glyph glyph-name="z" unicode="z" horiz-adv-x="483" 
d="M454 0h-436l-1 2l245 385l-1 2h-223v103h421l1 -2l-245 -385l1 -2h238v-103z" />
    <glyph glyph-name="braceleft" unicode="{" horiz-adv-x="378" 
d="M26 220v90h27q44 0 58.5 17.5t14.5 60.5v206q0 76 39.5 118t120.5 42q39 0 64 -5v-89q-16 4 -43 4q-39 0 -54.5 -19t-15.5 -65v-187q0 -55 -14 -85t-51 -42v-2q37 -12 51 -42t14 -85v-187q0 -46 15.5 -65t54.5 -19q27 0 43 4v-89q-25 -5 -64 -5q-81 0 -120.5 42
t-39.5 118v206q0 43 -14.5 60.5t-58.5 17.5h-27z" />
    <glyph glyph-name="bar" unicode="|" horiz-adv-x="322" 
d="M113 -220v1020h96v-1020h-96z" />
    <glyph glyph-name="braceright" unicode="}" horiz-adv-x="378" 
d="M352 310v-90h-27q-44 0 -58.5 -17.5t-14.5 -60.5v-206q0 -76 -39.5 -118t-120.5 -42q-39 0 -64 5v89q16 -4 43 -4q39 0 54.5 19t15.5 65v187q0 55 14 85t51 42v2q-37 12 -51 42t-14 85v187q0 46 -15.5 65t-54.5 19q-27 0 -43 -4v89q25 5 64 5q81 0 120.5 -42t39.5 -118
v-206q0 -43 14.5 -60.5t58.5 -17.5h27z" />
    <glyph glyph-name="asciitilde" unicode="~" horiz-adv-x="555" 
d="M267 315q-66 32 -96 32q-21 0 -40 -9.5t-29 -19.5t-25 -28l-2 1v110q35 43 98 43q45 0 115 -34q66 -32 96 -32q21 0 40 9.5t29 19.5t25 28l2 -1v-110q-35 -43 -98 -43q-45 0 -115 34z" />
    <glyph glyph-name="uni00A0" unicode="&#xa0;" horiz-adv-x="240" 
 />
    <glyph glyph-name="exclamdown" unicode="&#xa1;" horiz-adv-x="300" 
d="M189 260l31 -492h-140l31 492h78zM225 428q0 -31 -22 -53t-53 -22t-53 22t-22 53t22 53t53 22t53 -22t22 -53z" />
    <glyph glyph-name="cent" unicode="&#xa2;" horiz-adv-x="517" 
d="M36 360q0 92 55 159t143 90v133h95v-123q66 -3 126 -32v-118q-69 45 -139 45t-114 -43.5t-44 -109.5t45 -108t115 -42q82 0 145 50v-118q-54 -32 -134 -37v-124h-95v132q-90 21 -144 87.5t-54 158.5z" />
    <glyph glyph-name="sterling" unicode="&#xa3;" horiz-adv-x="582" 
d="M68 302v96h47q-26 71 -26 120q0 100 69.5 158.5t176.5 58.5q102 0 173 -47v-126q-80 58 -165 58q-57 0 -92 -29.5t-35 -80.5q0 -30 26 -112h178v-96h-150q5 -28 5 -52q0 -83 -56 -135v-2h316v-113h-467v94q40 25 63.5 66t23.5 86q0 25 -7 56h-80z" />
    <glyph glyph-name="currency" unicode="&#xa4;" horiz-adv-x="602" 
d="M180 350q0 -53 34 -89t87 -36t87 36t34 89t-34 89t-87 36t-87 -36t-34 -89zM88 350q0 59 28 109l-77 77l75 75l76 -77q52 29 111 29t111 -29l76 77l75 -75l-77 -77q28 -50 28 -109t-28 -109l77 -77l-75 -75l-76 77q-52 -29 -111 -29t-111 29l-76 -77l-75 75l77 77
q-28 50 -28 109z" />
    <glyph glyph-name="yen" unicode="&#xa5;" horiz-adv-x="682" 
d="M517 724h142l-167 -239h99v-88h-160l-26 -37v-60h186v-88h-186v-212h-127v212h-186v88h186v59l-27 38h-159v88h97l-169 239h148l83 -121q56 -82 91 -136h2q43 66 92 138z" />
    <glyph glyph-name="brokenbar" unicode="&#xa6;" horiz-adv-x="322" 
d="M113 408v392h96v-392h-96zM113 172h96v-392h-96v392z" />
    <glyph glyph-name="section" unicode="&#xa7;" horiz-adv-x="574" 
d="M117 -7q78 -47 150 -47q42 0 68 18.5t26 52.5q0 12 -3.5 22.5t-12 19.5t-16.5 15.5t-24 14t-27 12t-32.5 13.5t-33.5 14q-74 32 -116.5 70.5t-42.5 103.5q0 51 27.5 87.5t72.5 52.5v2q-53 46 -53 116q0 78 59 125t148 47q82 0 143 -34v-110q-71 43 -136 43
q-41 0 -67 -18.5t-26 -50.5q0 -12 3.5 -22.5t12.5 -19.5t16.5 -15.5t23.5 -14t26 -11.5t31 -12.5t31 -12.5q78 -32 121 -71t43 -107q0 -52 -27 -88t-72 -52v-2q52 -44 52 -116q0 -79 -60 -126t-154 -47q-83 0 -151 36v112zM263 381l-12 4q-79 -18 -79 -75q0 -19 7.5 -33.5
t25.5 -26t30.5 -18t40.5 -17t37 -14.5l21 -9q76 18 76 77q0 13 -3.5 23t-12.5 19.5t-16 16t-24 14.5t-26 12t-32 13.5t-33 13.5z" />
    <glyph glyph-name="dieresis" unicode="&#xa8;" 
d="M298 647q0 27 19.5 46.5t46.5 19.5t46.5 -19.5t19.5 -46.5t-19.5 -46.5t-46.5 -19.5t-46.5 19.5t-19.5 46.5zM88 647q0 27 19.5 46.5t46.5 19.5t46.5 -19.5t19.5 -46.5t-19.5 -46.5t-46.5 -19.5t-46.5 19.5t-19.5 46.5z" />
    <glyph glyph-name="copyright" unicode="&#xa9;" horiz-adv-x="804" 
d="M206 366q0 88 60.5 146.5t152.5 58.5q67 0 116 -29v-81q-54 37 -112 37q-59 0 -96.5 -37.5t-37.5 -93.5t37.5 -93t98.5 -37q64 0 115 40v-82q-49 -32 -123 -32q-92 0 -151.5 58t-59.5 145zM85 362q0 -137 89 -228.5t228 -91.5t228 91.5t89 228.5t-89 228.5t-228 91.5
t-228 -91.5t-89 -228.5zM29 362q0 158 107 265.5t266 107.5t266 -107.5t107 -265.5t-107 -265.5t-266 -107.5t-266 107.5t-107 265.5z" />
    <glyph glyph-name="ordfeminine" unicode="&#xaa;" horiz-adv-x="370" 
d="M165 401q-44 0 -75 22q-38 28 -38 74q0 49 40 76q34 23 90 23q32 0 59 -7v17q0 55 -65 55q-46 0 -96 -28v77q46 26 109 26q67 0 104 -30q35 -29 35 -87v-118q0 -28 21 -28q10 0 17 4v-66q-18 -9 -43 -9q-44 0 -66 28h-1q-38 -29 -91 -29zM185 466q34 0 56 19v49
q-18 6 -45 6q-60 0 -60 -38q0 -36 49 -36z" />
    <glyph glyph-name="guillemotleft" unicode="&#xab;" horiz-adv-x="563" 
d="M199 27l-165 219l165 219h100l-164 -219l164 -219h-100zM417 27l-165 219l165 219h100l-164 -219l164 -219h-100z" />
    <glyph glyph-name="logicalnot" unicode="&#xac;" horiz-adv-x="594" 
d="M54 317v91h487v-292h-96v201h-391z" />
    <glyph glyph-name="uni00AD" unicode="&#xad;" horiz-adv-x="346" 
d="M52 226v102h242v-102h-242z" />
    <glyph glyph-name="registered" unicode="&#xae;" horiz-adv-x="446" 
d="M35 549q0 80 53.5 133t134.5 53t134.5 -53t53.5 -133t-53.5 -133t-134.5 -53t-134.5 53t-53.5 133zM69 549q0 -67 43 -110.5t111 -43.5t111 43.5t43 110.5t-43 110.5t-111 43.5t-111 -43.5t-43 -110.5zM262 448l-41 72h-26v-72h-43v202h75q33 0 55 -17.5t22 -47.5
q0 -43 -41 -58l48 -79h-49zM195 554h28q37 0 37 29t-37 29h-28v-58z" />
    <glyph glyph-name="macron" unicode="&#xaf;" 
d="M114 603v84h290v-84h-290z" />
    <glyph glyph-name="degree" unicode="&#xb0;" horiz-adv-x="366" 
d="M89 588q0 -38 27 -65.5t67 -27.5t67 27.5t27 65.5t-27 65.5t-67 27.5t-67 -27.5t-27 -65.5zM32 588q0 62 43 104.5t108 42.5t108 -42.5t43 -104.5t-43 -104.5t-108 -42.5t-108 42.5t-43 104.5z" />
    <glyph glyph-name="plusminus" unicode="&#xb1;" horiz-adv-x="594" 
d="M249 238v171h-181v91h181v170h96v-170h181v-91h-181v-171h-96zM68 71v91h458v-91h-458z" />
    <glyph glyph-name="two.superior" unicode="&#xb2;" horiz-adv-x="371" 
d="M15 422l-1 2l142 172q66 81 66 124q0 27 -17.5 41.5t-49.5 14.5q-53 0 -108 -38v91q57 34 119 34q71 0 112 -37t41 -98q0 -68 -70 -153l-54 -65l1 -2h137v-86h-318z" />
    <glyph glyph-name="three.superior" unicode="&#xb3;" horiz-adv-x="361" 
d="M36 451v93q64 -44 123 -44q34 0 53.5 14t19.5 39q0 50 -80 50h-45v72h42q73 0 73 51q0 24 -19 38t-52 14q-48 0 -95 -28v87q45 26 107 26q67 0 112 -34t45 -87q0 -31 -17 -57t-46 -36v-2q73 -25 73 -102q0 -58 -48.5 -94t-119.5 -36t-126 36z" />
    <glyph glyph-name="acute" unicode="&#xb4;" 
d="M389 727l-113 -164h-86l81 164h118z" />
    <glyph glyph-name="mu" unicode="&#xb5;" horiz-adv-x="599" 
d="M72 492h121v-282q0 -62 22 -87q23 -27 65 -27q71 0 128 64v332h121v-492h-120v54l-2 1q-71 -66 -156 -66q-36 0 -64 13l-2 -1l13 -221h-126v712z" />
    <glyph glyph-name="paragraph" unicode="&#xb6;" horiz-adv-x="590" 
d="M232 -220v582q-76 0 -129.5 53t-53.5 128t53.5 128t129.5 53h269v-944h-95v860h-79v-860h-95z" />
    <glyph glyph-name="periodcentered" unicode="&#xb7;" horiz-adv-x="300" 
d="M73 302q0 32 23 55t55 23t55 -23t23 -55t-23 -55t-55 -23t-55 23t-23 55z" />
    <glyph glyph-name="cedilla" unicode="&#xb8;" 
d="M209 -88l39 125l50 -12l-20 -65q88 -20 88 -91q0 -41 -30 -65.5t-79 -24.5q-46 0 -84 18l18 57q38 -19 65 -19q18 0 30.5 8t12.5 23q0 40 -90 46z" />
    <glyph glyph-name="one.superior" unicode="&#xb9;" horiz-adv-x="329" 
d="M139 422v323l-96 -33v85l190 66v-441h-94z" />
    <glyph glyph-name="ordmasculine" unicode="&#xba;" horiz-adv-x="406" 
d="M203 478q38 0 62 25.5t24 64.5t-24 64.5t-62 25.5t-62 -25.5t-24 -64.5t24 -64.5t62 -25.5zM203 401q-77 0 -126 47.5t-49 119.5t49 119.5t126 47.5t126 -47.5t49 -119.5t-49 -119.5t-126 -47.5z" />
    <glyph glyph-name="guillemotright" unicode="&#xbb;" horiz-adv-x="563" 
d="M46 27l164 219l-164 219h100l165 -219l-165 -219h-100zM264 27l164 219l-164 219h100l165 -219l-165 -219h-100z" />
    <glyph glyph-name="onequarter" unicode="&#xbc;" horiz-adv-x="963" 
d="M287 -13h-105l476 737h105zM748 0v93h-225l-1 2l232 339h88v-268h67v-73h-67v-93h-94zM704 241l-50 -73l1 -2h93v46q0 59 2 97l-2 1q-18 -31 -44 -69zM157 294v323l-96 -33v85l190 66v-441h-94z" />
    <glyph glyph-name="onehalf" unicode="&#xbd;" horiz-adv-x="992" 
d="M603 0l-1 2l142 172q66 81 66 124q0 27 -17.5 41.5t-49.5 14.5q-53 0 -108 -38v91q57 34 119 34q71 0 112 -37t41 -98q0 -68 -70 -153l-54 -65l1 -2h137v-86h-318zM287 -13h-105l476 737h105zM157 294v323l-96 -33v85l190 66v-441h-94z" />
    <glyph glyph-name="threequarters" unicode="&#xbe;" horiz-adv-x="1023" 
d="M69 323v93q64 -44 123 -44q34 0 53.5 14t19.5 39q0 50 -80 50h-45v72h42q73 0 73 51q0 24 -19 38t-52 14q-48 0 -95 -28v87q45 26 107 26q67 0 112 -34t45 -87q0 -31 -17 -57t-46 -36v-2q73 -25 73 -102q0 -58 -48.5 -94t-119.5 -36t-126 36zM347 -13h-105l476 737h105z
M808 0v93h-225l-1 2l232 339h88v-268h67v-73h-67v-93h-94zM764 241l-50 -73l1 -2h93v46q0 59 2 97l-2 1q-18 -31 -44 -69z" />
    <glyph glyph-name="questiondown" unicode="&#xbf;" horiz-adv-x="491" 
d="M362 285l23 -179q-98 0 -155 -30t-57 -92q0 -48 33 -79.5t85 -31.5q68 0 135 46l15 -117q-65 -45 -158 -45q-102 0 -170 63t-68 155q0 87 61 147.5t146 70.5l-2 92h112zM369 428q0 -31 -22 -53t-53 -22t-53 22t-22 53t22 53t53 22t53 -22t22 -53z" />
    <glyph glyph-name="Agrave" unicode="&#xc0;" horiz-adv-x="725" 
d="M425 724l296 -724h-135l-69 177h-312l-70 -177h-131l297 724h124zM288 390l-42 -109h230l-42 109q-42 109 -72 194h-2q-35 -99 -72 -194zM346 795l-113 164h118l81 -164h-86z" />
    <glyph glyph-name="Aacute" unicode="&#xc1;" horiz-adv-x="725" 
d="M425 724l296 -724h-135l-69 177h-312l-70 -177h-131l297 724h124zM288 390l-42 -109h230l-42 109q-42 109 -72 194h-2q-35 -99 -72 -194zM492 959l-113 -164h-86l81 164h118z" />
    <glyph glyph-name="Acircumflex" unicode="&#xc2;" horiz-adv-x="725" 
d="M425 724l296 -724h-135l-69 177h-312l-70 -177h-131l297 724h124zM288 390l-42 -109h230l-42 109q-42 109 -72 194h-2q-35 -99 -72 -194zM193 795l115 164h108l115 -164h-88l-81 98l-81 -98h-88z" />
    <glyph glyph-name="Atilde" unicode="&#xc3;" horiz-adv-x="725" 
d="M425 724l296 -724h-135l-69 177h-312l-70 -177h-131l297 724h124zM288 390l-42 -109h230l-42 109q-42 109 -72 194h-2q-35 -99 -72 -194zM354 835q-48 23 -68 23q-40 0 -83 -47l-2 1v92q32 42 85 42q34 0 84 -24q48 -23 68 -23q40 0 83 47l2 -1v-92q-32 -42 -85 -42
q-34 0 -84 24z" />
    <glyph glyph-name="Adieresis" unicode="&#xc4;" horiz-adv-x="725" 
d="M425 724l296 -724h-135l-69 177h-312l-70 -177h-131l297 724h124zM288 390l-42 -109h230l-42 109q-42 109 -72 194h-2q-35 -99 -72 -194zM401 879q0 27 19.5 46.5t46.5 19.5t46.5 -19.5t19.5 -46.5t-19.5 -46.5t-46.5 -19.5t-46.5 19.5t-19.5 46.5zM191 879
q0 27 19.5 46.5t46.5 19.5t46.5 -19.5t19.5 -46.5t-19.5 -46.5t-46.5 -19.5t-46.5 19.5t-19.5 46.5z" />
    <glyph glyph-name="Aring" unicode="&#xc5;" horiz-adv-x="725" 
d="M425 724l296 -724h-135l-69 177h-312l-70 -177h-131l297 724h124zM288 390l-42 -109h230l-42 109q-42 109 -72 194h-2q-35 -99 -72 -194zM301 897q0 -26 16.5 -44t44.5 -18t44.5 18t16.5 44t-16.5 44t-44.5 18t-44.5 -18t-16.5 -44zM486 897q0 -51 -35.5 -85t-88.5 -34
t-88.5 34t-35.5 85t35.5 85t88.5 34t88.5 -34t35.5 -85z" />
    <glyph glyph-name="AE" unicode="&#xc6;" horiz-adv-x="948" 
d="M-2 0l410 724h490v-113h-295v-180h255v-108h-255v-210h305v-113h-432v177h-245l-99 -177h-134zM364 414l-75 -133h187v127q0 136 2 210h-2q-52 -97 -112 -204z" />
    <glyph glyph-name="Ccedilla" unicode="&#xc7;" horiz-adv-x="681" 
d="M351 -88l25 80q-150 15 -244 117.5t-94 250.5q0 159 108 267t278 108q111 0 202 -48v-132q-91 65 -202 65q-114 0 -186.5 -73.5t-72.5 -184.5t73.5 -184t192.5 -73q114 0 206 70v-134q-85 -50 -208 -52l-9 -29q88 -20 88 -91q0 -41 -30 -65.5t-79 -24.5q-46 0 -84 18
l18 57q38 -19 65 -19q18 0 30.5 8t12.5 23q0 40 -90 46z" />
    <glyph glyph-name="Egrave" unicode="&#xc8;" horiz-adv-x="556" 
d="M74 0v724h432v-113h-305v-180h265v-108h-265v-210h315v-113h-442zM276 795l-113 164h118l81 -164h-86z" />
    <glyph glyph-name="Eacute" unicode="&#xc9;" horiz-adv-x="556" 
d="M74 0v724h432v-113h-305v-180h265v-108h-265v-210h315v-113h-442zM422 959l-113 -164h-86l81 164h118z" />
    <glyph glyph-name="Ecircumflex" unicode="&#xca;" horiz-adv-x="556" 
d="M74 0v724h432v-113h-305v-180h265v-108h-265v-210h315v-113h-442zM123 795l115 164h108l115 -164h-88l-81 98l-81 -98h-88z" />
    <glyph glyph-name="Edieresis" unicode="&#xcb;" horiz-adv-x="556" 
d="M74 0v724h432v-113h-305v-180h265v-108h-265v-210h315v-113h-442zM331 879q0 27 19.5 46.5t46.5 19.5t46.5 -19.5t19.5 -46.5t-19.5 -46.5t-46.5 -19.5t-46.5 19.5t-19.5 46.5zM121 879q0 27 19.5 46.5t46.5 19.5t46.5 -19.5t19.5 -46.5t-19.5 -46.5t-46.5 -19.5
t-46.5 19.5t-19.5 46.5z" />
    <glyph glyph-name="Igrave" unicode="&#xcc;" horiz-adv-x="274" 
d="M74 0v724h127v-724h-127zM121 795l-113 164h118l81 -164h-86z" />
    <glyph glyph-name="Iacute" unicode="&#xcd;" horiz-adv-x="274" 
d="M74 0v724h127v-724h-127zM267 959l-113 -164h-86l81 164h118z" />
    <glyph glyph-name="Icircumflex" unicode="&#xce;" horiz-adv-x="274" 
d="M74 0v724h127v-724h-127zM-32 795l115 164h108l115 -164h-88l-81 98l-81 -98h-88z" />
    <glyph glyph-name="Idieresis" unicode="&#xcf;" horiz-adv-x="274" 
d="M74 0v724h127v-724h-127zM176 879q0 27 19.5 46.5t46.5 19.5t46.5 -19.5t19.5 -46.5t-19.5 -46.5t-46.5 -19.5t-46.5 19.5t-19.5 46.5zM-34 879q0 27 19.5 46.5t46.5 19.5t46.5 -19.5t19.5 -46.5t-19.5 -46.5t-46.5 -19.5t-46.5 19.5t-19.5 46.5z" />
    <glyph glyph-name="Eth" unicode="&#xd0;" horiz-adv-x="752" 
d="M3 322v94h84v308h201q178 0 280 -66q72 -46 111 -123t39 -171q0 -88 -34.5 -162t-97.5 -121q-107 -81 -314 -81h-185v322h-84zM214 113h69q144 0 215 52q93 68 93 198q0 66 -27 118t-73 84q-67 46 -209 46h-68v-195h143v-94h-143v-209z" />
    <glyph glyph-name="Ntilde" unicode="&#xd1;" horiz-adv-x="780" 
d="M196 0h-123v724h120l262 -349q66 -88 129 -175l2 1q-2 68 -2 219v304h123v-724h-120l-262 349q-66 88 -129 175l-2 -1q2 -68 2 -219v-304zM382 835q-48 23 -68 23q-40 0 -83 -47l-2 1v92q32 42 85 42q34 0 84 -24q48 -23 68 -23q40 0 83 47l2 -1v-92q-32 -42 -85 -42
q-34 0 -84 24z" />
    <glyph glyph-name="Ograve" unicode="&#xd2;" horiz-adv-x="820" 
d="M410 105q105 0 175.5 74t70.5 183t-70.5 183t-175.5 74t-175.5 -74t-70.5 -183t70.5 -183t175.5 -74zM410 -11q-159 0 -266 107t-107 266t107 266t266 107t266 -107t107 -266t-107 -266t-266 -107zM394 795l-113 164h118l81 -164h-86z" />
    <glyph glyph-name="Oacute" unicode="&#xd3;" horiz-adv-x="820" 
d="M410 105q105 0 175.5 74t70.5 183t-70.5 183t-175.5 74t-175.5 -74t-70.5 -183t70.5 -183t175.5 -74zM410 -11q-159 0 -266 107t-107 266t107 266t266 107t266 -107t107 -266t-107 -266t-266 -107zM540 959l-113 -164h-86l81 164h118z" />
    <glyph glyph-name="Ocircumflex" unicode="&#xd4;" horiz-adv-x="820" 
d="M410 105q105 0 175.5 74t70.5 183t-70.5 183t-175.5 74t-175.5 -74t-70.5 -183t70.5 -183t175.5 -74zM410 -11q-159 0 -266 107t-107 266t107 266t266 107t266 -107t107 -266t-107 -266t-266 -107zM241 795l115 164h108l115 -164h-88l-81 98l-81 -98h-88z" />
    <glyph glyph-name="Otilde" unicode="&#xd5;" horiz-adv-x="820" 
d="M410 105q105 0 175.5 74t70.5 183t-70.5 183t-175.5 74t-175.5 -74t-70.5 -183t70.5 -183t175.5 -74zM410 -11q-159 0 -266 107t-107 266t107 266t266 107t266 -107t107 -266t-107 -266t-266 -107zM402 835q-48 23 -68 23q-40 0 -83 -47l-2 1v92q32 42 85 42q34 0 84 -24
q48 -23 68 -23q40 0 83 47l2 -1v-92q-32 -42 -85 -42q-34 0 -84 24z" />
    <glyph glyph-name="Odieresis" unicode="&#xd6;" horiz-adv-x="820" 
d="M410 105q105 0 175.5 74t70.5 183t-70.5 183t-175.5 74t-175.5 -74t-70.5 -183t70.5 -183t175.5 -74zM410 -11q-159 0 -266 107t-107 266t107 266t266 107t266 -107t107 -266t-107 -266t-266 -107zM449 879q0 27 19.5 46.5t46.5 19.5t46.5 -19.5t19.5 -46.5t-19.5 -46.5
t-46.5 -19.5t-46.5 19.5t-19.5 46.5zM239 879q0 27 19.5 46.5t46.5 19.5t46.5 -19.5t19.5 -46.5t-19.5 -46.5t-46.5 -19.5t-46.5 19.5t-19.5 46.5z" />
    <glyph glyph-name="multiply" unicode="&#xd7;" horiz-adv-x="594" 
d="M511 512l-149 -149l149 -149l-65 -65l-149 149l-149 -149l-65 65l149 149l-149 149l65 65l149 -149l149 149z" />
    <glyph glyph-name="Oslash" unicode="&#xd8;" horiz-adv-x="820" 
d="M164 362q0 -93 53 -162l326 380q-59 39 -133 39q-105 0 -175.5 -74t-70.5 -183zM37 362q0 159 107 266t266 107q118 0 212 -63l61 71l63 -53l-61 -71q98 -106 98 -257q0 -159 -107 -266t-266 -107q-118 0 -212 63l-61 -71l-63 53l61 71q-98 106 -98 257zM656 362
q0 93 -53 162l-326 -380q59 -39 133 -39q105 0 175.5 74t70.5 183z" />
    <glyph glyph-name="Ugrave" unicode="&#xd9;" horiz-adv-x="740" 
d="M117 106q-51 76 -51 238v380h127v-372q0 -122 28 -171q43 -76 153 -76q106 0 148 73q29 49 29 172v374h123v-372q0 -171 -52 -248q-78 -115 -253 -115t-252 117zM356 795l-113 164h118l81 -164h-86z" />
    <glyph glyph-name="Uacute" unicode="&#xda;" horiz-adv-x="740" 
d="M117 106q-51 76 -51 238v380h127v-372q0 -122 28 -171q43 -76 153 -76q106 0 148 73q29 49 29 172v374h123v-372q0 -171 -52 -248q-78 -115 -253 -115t-252 117zM502 959l-113 -164h-86l81 164h118z" />
    <glyph glyph-name="Ucircumflex" unicode="&#xdb;" horiz-adv-x="740" 
d="M117 106q-51 76 -51 238v380h127v-372q0 -122 28 -171q43 -76 153 -76q106 0 148 73q29 49 29 172v374h123v-372q0 -171 -52 -248q-78 -115 -253 -115t-252 117zM203 795l115 164h108l115 -164h-88l-81 98l-81 -98h-88z" />
    <glyph glyph-name="Udieresis" unicode="&#xdc;" horiz-adv-x="740" 
d="M117 106q-51 76 -51 238v380h127v-372q0 -122 28 -171q43 -76 153 -76q106 0 148 73q29 49 29 172v374h123v-372q0 -171 -52 -248q-78 -115 -253 -115t-252 117zM411 879q0 27 19.5 46.5t46.5 19.5t46.5 -19.5t19.5 -46.5t-19.5 -46.5t-46.5 -19.5t-46.5 19.5t-19.5 46.5
zM201 879q0 27 19.5 46.5t46.5 19.5t46.5 -19.5t19.5 -46.5t-19.5 -46.5t-46.5 -19.5t-46.5 19.5t-19.5 46.5z" />
    <glyph glyph-name="Yacute" unicode="&#xdd;" horiz-adv-x="672" 
d="M274 0v327l-280 397h148l105 -153q56 -82 91 -136h2q43 66 92 138l103 151h143l-277 -396v-328h-127zM469 959l-113 -164h-86l81 164h118z" />
    <glyph glyph-name="Thorn" unicode="&#xde;" horiz-adv-x="631" 
d="M74 0v724h127v-134h75q145 0 215 -38q110 -59 110 -187q0 -123 -101 -184q-72 -43 -237 -43h-62v-138h-127zM201 244h72q111 0 150 23q51 30 51 94q0 68 -59 97q-38 19 -144 19h-70v-233z" />
    <glyph glyph-name="germandbls" unicode="&#xdf;" horiz-adv-x="640" 
d="M71 0v566q0 109 62 159q61 50 173 50q110 0 172 -47q63 -48 63 -140q0 -63 -23 -116q-53 -7 -90 -21q-58 -23 -58 -63q0 -6 1.5 -11.5t3 -10t5.5 -9t7 -7.5t10 -7t11 -6.5t13.5 -7t14.5 -6.5t16.5 -7t17.5 -7q31 -13 48.5 -23t41.5 -28.5t35.5 -45.5t11.5 -62
q0 -77 -55.5 -119t-136.5 -42q-89 0 -155 33v117q32 -23 75 -37t78 -14q32 0 52.5 14.5t20.5 42.5q0 14 -5.5 25t-18.5 19.5t-23 13.5t-31.5 13.5t-31.5 12.5q-61 26 -92.5 60.5t-31.5 89.5q0 76 62 122q42 30 102 44q4 18 4 35q0 43 -29 67q-28 22 -85 22q-60 0 -86 -25
q-28 -25 -28 -83v-561h-121z" />
    <glyph glyph-name="agrave" unicode="&#xe0;" horiz-adv-x="533" 
d="M206 -11q-69 0 -114 33q-55 40 -55 113q0 76 63 119q50 34 138 34q48 0 95 -11v29q0 44 -24 67q-27 24 -83 24q-78 0 -148 -44v110q71 40 166 40q103 0 158 -46q52 -44 52 -131v-189q0 -46 34 -46q13 0 27 7v-95q-26 -12 -60 -12q-68 0 -101 45h-2q-59 -47 -146 -47z
M236 85q55 0 97 30v83q-37 10 -76 10q-42 0 -70.5 -15.5t-28.5 -48.5q0 -29 22 -44t56 -15zM249 563l-113 164h118l81 -164h-86z" />
    <glyph glyph-name="aacute" unicode="&#xe1;" horiz-adv-x="533" 
d="M206 -11q-69 0 -114 33q-55 40 -55 113q0 76 63 119q50 34 138 34q48 0 95 -11v29q0 44 -24 67q-27 24 -83 24q-78 0 -148 -44v110q71 40 166 40q103 0 158 -46q52 -44 52 -131v-189q0 -46 34 -46q13 0 27 7v-95q-26 -12 -60 -12q-68 0 -101 45h-2q-59 -47 -146 -47z
M236 85q55 0 97 30v83q-37 10 -76 10q-42 0 -70.5 -15.5t-28.5 -48.5q0 -29 22 -44t56 -15zM395 727l-113 -164h-86l81 164h118z" />
    <glyph glyph-name="acircumflex" unicode="&#xe2;" horiz-adv-x="533" 
d="M206 -11q-69 0 -114 33q-55 40 -55 113q0 76 63 119q50 34 138 34q48 0 95 -11v29q0 44 -24 67q-27 24 -83 24q-78 0 -148 -44v110q71 40 166 40q103 0 158 -46q52 -44 52 -131v-189q0 -46 34 -46q13 0 27 7v-95q-26 -12 -60 -12q-68 0 -101 45h-2q-59 -47 -146 -47z
M236 85q55 0 97 30v83q-37 10 -76 10q-42 0 -70.5 -15.5t-28.5 -48.5q0 -29 22 -44t56 -15zM96 563l115 164h108l115 -164h-88l-81 98l-81 -98h-88z" />
    <glyph glyph-name="atilde" unicode="&#xe3;" horiz-adv-x="533" 
d="M206 -11q-69 0 -114 33q-55 40 -55 113q0 76 63 119q50 34 138 34q48 0 95 -11v29q0 44 -24 67q-27 24 -83 24q-78 0 -148 -44v110q71 40 166 40q103 0 158 -46q52 -44 52 -131v-189q0 -46 34 -46q13 0 27 7v-95q-26 -12 -60 -12q-68 0 -101 45h-2q-59 -47 -146 -47z
M236 85q55 0 97 30v83q-37 10 -76 10q-42 0 -70.5 -15.5t-28.5 -48.5q0 -29 22 -44t56 -15zM257 603q-48 23 -68 23q-40 0 -83 -47l-2 1v92q32 42 85 42q34 0 84 -24q48 -23 68 -23q40 0 83 47l2 -1v-92q-32 -42 -85 -42q-34 0 -84 24z" />
    <glyph glyph-name="adieresis" unicode="&#xe4;" horiz-adv-x="533" 
d="M206 -11q-69 0 -114 33q-55 40 -55 113q0 76 63 119q50 34 138 34q48 0 95 -11v29q0 44 -24 67q-27 24 -83 24q-78 0 -148 -44v110q71 40 166 40q103 0 158 -46q52 -44 52 -131v-189q0 -46 34 -46q13 0 27 7v-95q-26 -12 -60 -12q-68 0 -101 45h-2q-59 -47 -146 -47z
M236 85q55 0 97 30v83q-37 10 -76 10q-42 0 -70.5 -15.5t-28.5 -48.5q0 -29 22 -44t56 -15zM304 647q0 27 19.5 46.5t46.5 19.5t46.5 -19.5t19.5 -46.5t-19.5 -46.5t-46.5 -19.5t-46.5 19.5t-19.5 46.5zM94 647q0 27 19.5 46.5t46.5 19.5t46.5 -19.5t19.5 -46.5t-19.5 -46.5
t-46.5 -19.5t-46.5 19.5t-19.5 46.5z" />
    <glyph glyph-name="aring" unicode="&#xe5;" horiz-adv-x="533" 
d="M206 -11q-69 0 -114 33q-55 40 -55 113q0 76 63 119q50 34 138 34q48 0 95 -11v29q0 44 -24 67q-27 24 -83 24q-78 0 -148 -44v110q71 40 166 40q103 0 158 -46q52 -44 52 -131v-189q0 -46 34 -46q13 0 27 7v-95q-26 -12 -60 -12q-68 0 -101 45h-2q-59 -47 -146 -47z
M236 85q55 0 97 30v83q-37 10 -76 10q-42 0 -70.5 -15.5t-28.5 -48.5q0 -29 22 -44t56 -15zM204 665q0 -26 16.5 -44t44.5 -18t44.5 18t16.5 44t-16.5 44t-44.5 18t-44.5 -18t-16.5 -44zM389 665q0 -51 -35.5 -85t-88.5 -34t-88.5 34t-35.5 85t35.5 85t88.5 34t88.5 -34
t35.5 -85z" />
    <glyph glyph-name="ae" unicode="&#xe6;" horiz-adv-x="848" 
d="M412 438h2q65 65 162 65q95 0 161 -64t66 -177q0 -31 -3 -49h-352q12 -60 55 -92t106 -32q85 0 167 57v-111q-73 -46 -181 -46q-129 0 -201 79q-84 -79 -185 -79q-70 0 -117 34q-55 40 -55 112q0 76 63 119q50 34 136 34q44 0 91 -10v28q0 44 -24 67q-25 24 -81 24
q-76 0 -144 -44v110q69 40 163 40q117 0 171 -65zM574 405q-45 0 -80 -27.5t-46 -80.5h241q-5 47 -36 77.5t-79 30.5zM353 133q-15 31 -21 65q-37 10 -76 10q-42 0 -70 -15.5t-28 -48.5q0 -29 21.5 -44t56.5 -15q66 0 117 48z" />
    <glyph glyph-name="ccedilla" unicode="&#xe7;" horiz-adv-x="512" 
d="M465 144v-118q-62 -35 -150 -37l-9 -29q88 -20 88 -91q0 -41 -30 -65.5t-79 -24.5q-45 0 -83 18l17 57q38 -19 65 -19q18 0 30.5 8t12.5 23q0 40 -90 46l25 81q-99 14 -161 83t-62 168q0 114 80 186.5t198 72.5q76 0 140 -32v-118q-69 45 -138 45q-70 0 -114 -43.5
t-44 -109.5t45 -108t115 -42q82 0 144 49z" />
    <glyph glyph-name="egrave" unicode="&#xe8;" horiz-adv-x="566" 
d="M518 213h-355q11 -60 55 -92t108 -32q88 0 168 57v-111q-73 -46 -180 -46q-120 0 -197 71t-77 185t73.5 186t177.5 72q97 0 163.5 -64t66.5 -177q0 -29 -3 -49zM290 405q-45 0 -80.5 -27.5t-46.5 -80.5h245q-6 53 -40 80.5t-78 27.5zM269 563l-113 164h118l81 -164h-86z
" />
    <glyph glyph-name="eacute" unicode="&#xe9;" horiz-adv-x="566" 
d="M518 213h-355q11 -60 55 -92t108 -32q88 0 168 57v-111q-73 -46 -180 -46q-120 0 -197 71t-77 185t73.5 186t177.5 72q97 0 163.5 -64t66.5 -177q0 -29 -3 -49zM290 405q-45 0 -80.5 -27.5t-46.5 -80.5h245q-6 53 -40 80.5t-78 27.5zM415 727l-113 -164h-86l81 164h118z
" />
    <glyph glyph-name="ecircumflex" unicode="&#xea;" horiz-adv-x="566" 
d="M518 213h-355q11 -60 55 -92t108 -32q88 0 168 57v-111q-73 -46 -180 -46q-120 0 -197 71t-77 185t73.5 186t177.5 72q97 0 163.5 -64t66.5 -177q0 -29 -3 -49zM290 405q-45 0 -80.5 -27.5t-46.5 -80.5h245q-6 53 -40 80.5t-78 27.5zM116 563l115 164h108l115 -164h-88
l-81 98l-81 -98h-88z" />
    <glyph glyph-name="edieresis" unicode="&#xeb;" horiz-adv-x="566" 
d="M518 213h-355q11 -60 55 -92t108 -32q88 0 168 57v-111q-73 -46 -180 -46q-120 0 -197 71t-77 185t73.5 186t177.5 72q97 0 163.5 -64t66.5 -177q0 -29 -3 -49zM290 405q-45 0 -80.5 -27.5t-46.5 -80.5h245q-6 53 -40 80.5t-78 27.5zM324 647q0 27 19.5 46.5t46.5 19.5
t46.5 -19.5t19.5 -46.5t-19.5 -46.5t-46.5 -19.5t-46.5 19.5t-19.5 46.5zM114 647q0 27 19.5 46.5t46.5 19.5t46.5 -19.5t19.5 -46.5t-19.5 -46.5t-46.5 -19.5t-46.5 19.5t-19.5 46.5z" />
    <glyph glyph-name="igrave" unicode="&#xec;" horiz-adv-x="263" 
d="M71 0v492h121v-492h-121zM115 563l-113 164h118l81 -164h-86z" />
    <glyph glyph-name="iacute" unicode="&#xed;" horiz-adv-x="263" 
d="M71 0v492h121v-492h-121zM261 727l-113 -164h-86l81 164h118z" />
    <glyph glyph-name="icircumflex" unicode="&#xee;" horiz-adv-x="263" 
d="M71 0v492h121v-492h-121zM-38 563l115 164h108l115 -164h-88l-81 98l-81 -98h-88z" />
    <glyph glyph-name="idieresis" unicode="&#xef;" horiz-adv-x="263" 
d="M71 0v492h121v-492h-121zM170 647q0 27 19.5 46.5t46.5 19.5t46.5 -19.5t19.5 -46.5t-19.5 -46.5t-46.5 -19.5t-46.5 19.5t-19.5 46.5zM-40 647q0 27 19.5 46.5t46.5 19.5t46.5 -19.5t19.5 -46.5t-19.5 -46.5t-46.5 -19.5t-46.5 19.5t-19.5 46.5z" />
    <glyph glyph-name="eth" unicode="&#xf0;" horiz-adv-x="582" 
d="M133 506l-16 77l102 38q-43 29 -92 53l74 76q72 -37 132 -86l114 43l16 -77l-66 -25q74 -79 112.5 -170t38.5 -179q0 -126 -72.5 -196.5t-186.5 -70.5q-115 0 -186 69.5t-71 176.5q0 105 66.5 175.5t169.5 70.5q66 0 109 -35l2 2q-31 62 -89 117zM153 240q0 -63 38 -104
t99 -41q62 0 99 42t37 104q0 65 -39 103.5t-99 38.5t-97.5 -40t-37.5 -103z" />
    <glyph glyph-name="ntilde" unicode="&#xf1;" horiz-adv-x="596" 
d="M71 0v492h120v-53l2 -1q72 65 162 65q83 0 130 -52q42 -45 42 -145v-306h-121v285q0 61 -20 84q-22 27 -65 27q-72 0 -129 -62v-334h-121zM290 603q-48 23 -68 23q-40 0 -83 -47l-2 1v92q32 42 85 42q34 0 84 -24q48 -23 68 -23q40 0 83 47l2 -1v-92q-32 -42 -85 -42
q-34 0 -84 24z" />
    <glyph glyph-name="ograve" unicode="&#xf2;" horiz-adv-x="612" 
d="M160 246q0 -64 41.5 -107.5t104.5 -43.5t104.5 43.5t41.5 107.5t-41.5 107.5t-104.5 43.5t-104.5 -43.5t-41.5 -107.5zM39 246q0 109 76.5 183t190.5 74t190.5 -74t76.5 -183t-76.5 -183t-190.5 -74t-190.5 74t-76.5 183zM290 563l-113 164h118l81 -164h-86z" />
    <glyph glyph-name="oacute" unicode="&#xf3;" horiz-adv-x="612" 
d="M160 246q0 -64 41.5 -107.5t104.5 -43.5t104.5 43.5t41.5 107.5t-41.5 107.5t-104.5 43.5t-104.5 -43.5t-41.5 -107.5zM39 246q0 109 76.5 183t190.5 74t190.5 -74t76.5 -183t-76.5 -183t-190.5 -74t-190.5 74t-76.5 183zM436 727l-113 -164h-86l81 164h118z" />
    <glyph glyph-name="ocircumflex" unicode="&#xf4;" horiz-adv-x="612" 
d="M160 246q0 -64 41.5 -107.5t104.5 -43.5t104.5 43.5t41.5 107.5t-41.5 107.5t-104.5 43.5t-104.5 -43.5t-41.5 -107.5zM39 246q0 109 76.5 183t190.5 74t190.5 -74t76.5 -183t-76.5 -183t-190.5 -74t-190.5 74t-76.5 183zM137 563l115 164h108l115 -164h-88l-81 98
l-81 -98h-88z" />
    <glyph glyph-name="otilde" unicode="&#xf5;" horiz-adv-x="612" 
d="M160 246q0 -64 41.5 -107.5t104.5 -43.5t104.5 43.5t41.5 107.5t-41.5 107.5t-104.5 43.5t-104.5 -43.5t-41.5 -107.5zM39 246q0 109 76.5 183t190.5 74t190.5 -74t76.5 -183t-76.5 -183t-190.5 -74t-190.5 74t-76.5 183zM298 603q-48 23 -68 23q-40 0 -83 -47l-2 1v92
q32 42 85 42q34 0 84 -24q48 -23 68 -23q40 0 83 47l2 -1v-92q-32 -42 -85 -42q-34 0 -84 24z" />
    <glyph glyph-name="odieresis" unicode="&#xf6;" horiz-adv-x="612" 
d="M160 246q0 -64 41.5 -107.5t104.5 -43.5t104.5 43.5t41.5 107.5t-41.5 107.5t-104.5 43.5t-104.5 -43.5t-41.5 -107.5zM39 246q0 109 76.5 183t190.5 74t190.5 -74t76.5 -183t-76.5 -183t-190.5 -74t-190.5 74t-76.5 183zM345 647q0 27 19.5 46.5t46.5 19.5t46.5 -19.5
t19.5 -46.5t-19.5 -46.5t-46.5 -19.5t-46.5 19.5t-19.5 46.5zM135 647q0 27 19.5 46.5t46.5 19.5t46.5 -19.5t19.5 -46.5t-19.5 -46.5t-46.5 -19.5t-46.5 19.5t-19.5 46.5z" />
    <glyph glyph-name="divide" unicode="&#xf7;" horiz-adv-x="594" 
d="M540 317h-486v91h486v-91zM230 571q0 28 19.5 47.5t47.5 19.5t47.5 -19.5t19.5 -47.5t-19.5 -47.5t-47.5 -19.5t-47.5 19.5t-19.5 47.5zM364 154q0 -28 -19.5 -47.5t-47.5 -19.5t-47.5 19.5t-19.5 47.5t19.5 47.5t47.5 19.5t47.5 -19.5t19.5 -47.5z" />
    <glyph glyph-name="oslash" unicode="&#xf8;" horiz-adv-x="612" 
d="M160 246q0 -50 25 -87l193 219q-32 19 -72 19q-63 0 -104.5 -43.5t-41.5 -107.5zM39 246q0 109 76.5 183t190.5 74q84 0 146 -40l48 55l51 -44l-46 -53q68 -73 68 -175q0 -109 -76.5 -183t-190.5 -74q-84 0 -146 40l-48 -55l-51 44l46 53q-68 73 -68 175zM452 246
q0 50 -25 87l-193 -219q32 -19 72 -19q63 0 104.5 43.5t41.5 107.5z" />
    <glyph glyph-name="ugrave" unicode="&#xf9;" horiz-adv-x="599" 
d="M114 41q-44 48 -44 149v302h121v-282q0 -62 22 -87q23 -27 65 -27q71 0 128 64v332h121v-492h-120v54l-2 1q-71 -66 -160 -66q-84 0 -131 52zM283 563l-113 164h118l81 -164h-86z" />
    <glyph glyph-name="uacute" unicode="&#xfa;" horiz-adv-x="599" 
d="M114 41q-44 48 -44 149v302h121v-282q0 -62 22 -87q23 -27 65 -27q71 0 128 64v332h121v-492h-120v54l-2 1q-71 -66 -160 -66q-84 0 -131 52zM429 727l-113 -164h-86l81 164h118z" />
    <glyph glyph-name="ucircumflex" unicode="&#xfb;" horiz-adv-x="599" 
d="M114 41q-44 48 -44 149v302h121v-282q0 -62 22 -87q23 -27 65 -27q71 0 128 64v332h121v-492h-120v54l-2 1q-71 -66 -160 -66q-84 0 -131 52zM130 563l115 164h108l115 -164h-88l-81 98l-81 -98h-88z" />
    <glyph glyph-name="udieresis" unicode="&#xfc;" horiz-adv-x="599" 
d="M114 41q-44 48 -44 149v302h121v-282q0 -62 22 -87q23 -27 65 -27q71 0 128 64v332h121v-492h-120v54l-2 1q-71 -66 -160 -66q-84 0 -131 52zM338 647q0 27 19.5 46.5t46.5 19.5t46.5 -19.5t19.5 -46.5t-19.5 -46.5t-46.5 -19.5t-46.5 19.5t-19.5 46.5zM128 647
q0 27 19.5 46.5t46.5 19.5t46.5 -19.5t19.5 -46.5t-19.5 -46.5t-46.5 -19.5t-46.5 19.5t-19.5 46.5z" />
    <glyph glyph-name="yacute" unicode="&#xfd;" horiz-adv-x="553" 
d="M212 -220h-126l131 274l-203 438h131l67 -152q43 -98 66 -155h2q21 51 72 165l64 142h123zM409 727l-113 -164h-86l81 164h118z" />
    <glyph glyph-name="thorn" unicode="&#xfe;" horiz-adv-x="601" 
d="M71 -220v984h121v-298l2 -1q58 38 130 38q99 0 167.5 -70.5t68.5 -181.5q0 -115 -74.5 -188.5t-185.5 -73.5q-55 0 -106 21l-2 -1v-229h-121zM192 365v-249q48 -26 102 -26q65 0 104.5 44t39.5 111t-38.5 110.5t-101.5 43.5q-56 0 -106 -34z" />
    <glyph glyph-name="ydieresis" unicode="&#xff;" horiz-adv-x="553" 
d="M212 -220h-126l131 274l-203 438h131l67 -152q43 -98 66 -155h2q21 51 72 165l64 142h123zM318 647q0 27 19.5 46.5t46.5 19.5t46.5 -19.5t19.5 -46.5t-19.5 -46.5t-46.5 -19.5t-46.5 19.5t-19.5 46.5zM108 647q0 27 19.5 46.5t46.5 19.5t46.5 -19.5t19.5 -46.5
t-19.5 -46.5t-46.5 -19.5t-46.5 19.5t-19.5 46.5z" />
    <glyph glyph-name="Amacron" unicode="&#x100;" horiz-adv-x="725" 
d="M425 724l296 -724h-135l-69 177h-312l-70 -177h-131l297 724h124zM288 390l-42 -109h230l-42 109q-42 109 -72 194h-2q-35 -99 -72 -194zM217 835v84h290v-84h-290z" />
    <glyph glyph-name="amacron" unicode="&#x101;" horiz-adv-x="533" 
d="M206 -11q-69 0 -114 33q-55 40 -55 113q0 76 63 119q50 34 138 34q48 0 95 -11v29q0 44 -24 67q-27 24 -83 24q-78 0 -148 -44v110q71 40 166 40q103 0 158 -46q52 -44 52 -131v-189q0 -46 34 -46q13 0 27 7v-95q-26 -12 -60 -12q-68 0 -101 45h-2q-59 -47 -146 -47z
M236 85q55 0 97 30v83q-37 10 -76 10q-42 0 -70.5 -15.5t-28.5 -48.5q0 -29 22 -44t56 -15zM120 603v84h290v-84h-290z" />
    <glyph glyph-name="Abreve" unicode="&#x102;" horiz-adv-x="725" 
d="M425 724l296 -724h-135l-69 177h-312l-70 -177h-131l297 724h124zM288 390l-42 -109h230l-42 109q-42 109 -72 194h-2q-35 -99 -72 -194zM362 800q-71 0 -110 42.5t-41 113.5h71q8 -90 80 -90t80 90h71q-2 -71 -41 -113.5t-110 -42.5z" />
    <glyph glyph-name="abreve" unicode="&#x103;" horiz-adv-x="533" 
d="M206 -11q-69 0 -114 33q-55 40 -55 113q0 76 63 119q50 34 138 34q48 0 95 -11v29q0 44 -24 67q-27 24 -83 24q-78 0 -148 -44v110q71 40 166 40q103 0 158 -46q52 -44 52 -131v-189q0 -46 34 -46q13 0 27 7v-95q-26 -12 -60 -12q-68 0 -101 45h-2q-59 -47 -146 -47z
M236 85q55 0 97 30v83q-37 10 -76 10q-42 0 -70.5 -15.5t-28.5 -48.5q0 -29 22 -44t56 -15zM265 568q-71 0 -110 42.5t-41 113.5h71q8 -90 80 -90t80 90h71q-2 -71 -41 -113.5t-110 -42.5z" />
    <glyph glyph-name="Aogonek" unicode="&#x104;" horiz-adv-x="725" 
d="M425 724l296 -724q-54 -20 -80.5 -50.5t-26.5 -57.5q0 -21 12.5 -33.5t35.5 -12.5q19 0 45 7v-74q-34 -10 -67 -10q-57 0 -91 28.5t-34 74.5q0 74 71 128l-69 177h-312l-70 -177h-131l297 724h124zM288 390l-42 -109h230l-42 109q-42 109 -72 194h-2q-35 -99 -72 -194z
" />
    <glyph glyph-name="aogonek" unicode="&#x105;" horiz-adv-x="533" 
d="M515 3q-51 -13 -82.5 -47t-31.5 -66q0 -20 12 -32t35 -12q22 0 46 6v-72q-33 -11 -68 -11q-56 0 -90.5 29t-34.5 74q0 36 21 73t60 63v2q-15 8 -28 26h-2q-59 -47 -146 -47q-69 0 -114 33q-55 40 -55 113q0 76 63 119q50 34 138 34q48 0 95 -11v29q0 44 -24 67
q-27 24 -83 24q-78 0 -148 -44v110q71 40 166 40q103 0 158 -46q52 -44 52 -131v-189q0 -46 34 -46q13 0 27 7v-95zM236 85q55 0 97 30v83q-37 10 -76 10q-42 0 -70.5 -15.5t-28.5 -48.5q0 -29 22 -44t56 -15z" />
    <glyph glyph-name="Cacute" unicode="&#x106;" horiz-adv-x="681" 
d="M38 360q0 159 108 267t278 108q111 0 202 -48v-132q-91 65 -202 65q-114 0 -186.5 -73.5t-72.5 -184.5t73.5 -184t192.5 -73q114 0 206 70v-134q-89 -52 -212 -52q-169 0 -278 106t-109 265zM570 959l-113 -164h-86l81 164h118z" />
    <glyph glyph-name="cacute" unicode="&#x107;" horiz-adv-x="512" 
d="M465 144v-118q-67 -37 -154 -37q-118 0 -195 72.5t-77 182.5q0 114 80 186.5t198 72.5q76 0 140 -32v-118q-69 45 -138 45q-70 0 -114 -43.5t-44 -109.5t45 -108t115 -42q82 0 144 49zM458 727l-113 -164h-86l81 164h118z" />
    <glyph glyph-name="Ccircumflex" unicode="&#x108;" horiz-adv-x="681" 
d="M38 360q0 159 108 267t278 108q111 0 202 -48v-132q-91 65 -202 65q-114 0 -186.5 -73.5t-72.5 -184.5t73.5 -184t192.5 -73q114 0 206 70v-134q-89 -52 -212 -52q-169 0 -278 106t-109 265zM221 795l115 164h108l115 -164h-88l-81 98l-81 -98h-88z" />
    <glyph glyph-name="ccircumflex" unicode="&#x109;" horiz-adv-x="512" 
d="M465 144v-118q-67 -37 -154 -37q-118 0 -195 72.5t-77 182.5q0 114 80 186.5t198 72.5q76 0 140 -32v-118q-69 45 -138 45q-70 0 -114 -43.5t-44 -109.5t45 -108t115 -42q82 0 144 49zM123 563l115 164h108l115 -164h-88l-81 98l-81 -98h-88z" />
    <glyph glyph-name="Cdotaccent" unicode="&#x10a;" horiz-adv-x="681" 
d="M38 360q0 159 108 267t278 108q111 0 202 -48v-132q-91 65 -202 65q-114 0 -186.5 -73.5t-72.5 -184.5t73.5 -184t192.5 -73q114 0 206 70v-134q-89 -52 -212 -52q-169 0 -278 106t-109 265zM324 879q0 27 19.5 46.5t46.5 19.5t46.5 -19.5t19.5 -46.5t-19.5 -46.5
t-46.5 -19.5t-46.5 19.5t-19.5 46.5z" />
    <glyph glyph-name="cdotaccent" unicode="&#x10b;" horiz-adv-x="512" 
d="M465 144v-118q-67 -37 -154 -37q-118 0 -195 72.5t-77 182.5q0 114 80 186.5t198 72.5q76 0 140 -32v-118q-69 45 -138 45q-70 0 -114 -43.5t-44 -109.5t45 -108t115 -42q82 0 144 49zM226 647q0 27 19.5 46.5t46.5 19.5t46.5 -19.5t19.5 -46.5t-19.5 -46.5t-46.5 -19.5
t-46.5 19.5t-19.5 46.5z" />
    <glyph glyph-name="Ccaron" unicode="&#x10c;" horiz-adv-x="681" 
d="M38 360q0 159 108 267t278 108q111 0 202 -48v-132q-91 65 -202 65q-114 0 -186.5 -73.5t-72.5 -184.5t73.5 -184t192.5 -73q114 0 206 70v-134q-89 -52 -212 -52q-169 0 -278 106t-109 265zM559 959l-115 -164h-108l-115 164h88l81 -98l81 98h88z" />
    <glyph glyph-name="ccaron" unicode="&#x10d;" horiz-adv-x="512" 
d="M465 144v-118q-67 -37 -154 -37q-118 0 -195 72.5t-77 182.5q0 114 80 186.5t198 72.5q76 0 140 -32v-118q-69 45 -138 45q-70 0 -114 -43.5t-44 -109.5t45 -108t115 -42q82 0 144 49zM461 727l-115 -164h-108l-115 164h88l81 -98l81 98h88z" />
    <glyph glyph-name="Dcaron" unicode="&#x10e;" horiz-adv-x="739" 
d="M74 0v724h201q178 0 280 -66q72 -46 111 -123t39 -171q0 -88 -34.5 -162t-97.5 -121q-107 -81 -314 -81h-185zM201 113h69q144 0 215 52q93 68 93 198q0 66 -27 118t-73 84q-67 46 -209 46h-68v-498zM508 959l-115 -164h-108l-115 164h88l81 -98l81 98h88z" />
    <glyph glyph-name="dcaron" unicode="&#x10f;" horiz-adv-x="718" 
d="M42 237q0 115 73.5 190.5t186.5 75.5q57 0 106 -22l2 1v282h121v-764h-120v28l-2 1q-57 -40 -131 -40q-99 0 -167.5 68.5t-68.5 179.5zM164 243q0 -66 37.5 -109t101.5 -43q55 0 107 34v250q-50 25 -100 25q-67 0 -106.5 -44.5t-39.5 -112.5zM635 764h110l-78 -218h-84z
" />
    <glyph glyph-name="Dcroat" unicode="&#x110;" horiz-adv-x="752" 
d="M3 322v94h84v308h201q178 0 280 -66q72 -46 111 -123t39 -171q0 -88 -34.5 -162t-97.5 -121q-107 -81 -314 -81h-185v322h-84zM214 113h69q144 0 215 52q93 68 93 198q0 66 -27 118t-73 84q-67 46 -209 46h-68v-195h143v-94h-143v-209z" />
    <glyph glyph-name="dcroat" unicode="&#x111;" horiz-adv-x="602" 
d="M256 578v91h154v95h121v-95h69v-91h-69v-578h-120v28l-2 1q-57 -40 -131 -40q-99 0 -167.5 68.5t-68.5 179.5q0 115 73.5 190.5t186.5 75.5q57 0 106 -22l2 1v96h-154zM164 243q0 -66 37.5 -109t101.5 -43q55 0 107 34v250q-50 25 -100 25q-67 0 -106.5 -44.5
t-39.5 -112.5z" />
    <glyph glyph-name="Emacron" unicode="&#x112;" horiz-adv-x="556" 
d="M74 0v724h432v-113h-305v-180h265v-108h-265v-210h315v-113h-442zM147 835v84h290v-84h-290z" />
    <glyph glyph-name="emacron" unicode="&#x113;" horiz-adv-x="566" 
d="M518 213h-355q11 -60 55 -92t108 -32q88 0 168 57v-111q-73 -46 -180 -46q-120 0 -197 71t-77 185t73.5 186t177.5 72q97 0 163.5 -64t66.5 -177q0 -29 -3 -49zM290 405q-45 0 -80.5 -27.5t-46.5 -80.5h245q-6 53 -40 80.5t-78 27.5zM140 603v84h290v-84h-290z" />
    <glyph glyph-name="Ebreve" unicode="&#x114;" horiz-adv-x="556" 
d="M74 0v724h432v-113h-305v-180h265v-108h-265v-210h315v-113h-442zM292 800q-71 0 -110 42.5t-41 113.5h71q8 -90 80 -90t80 90h71q-2 -71 -41 -113.5t-110 -42.5z" />
    <glyph glyph-name="ebreve" unicode="&#x115;" horiz-adv-x="566" 
d="M518 213h-355q11 -60 55 -92t108 -32q88 0 168 57v-111q-73 -46 -180 -46q-120 0 -197 71t-77 185t73.5 186t177.5 72q97 0 163.5 -64t66.5 -177q0 -29 -3 -49zM290 405q-45 0 -80.5 -27.5t-46.5 -80.5h245q-6 53 -40 80.5t-78 27.5zM285 568q-71 0 -110 42.5t-41 113.5
h71q8 -90 80 -90t80 90h71q-2 -71 -41 -113.5t-110 -42.5z" />
    <glyph glyph-name="Edotaccent" unicode="&#x116;" horiz-adv-x="556" 
d="M74 0v724h432v-113h-305v-180h265v-108h-265v-210h315v-113h-442zM226 879q0 27 19.5 46.5t46.5 19.5t46.5 -19.5t19.5 -46.5t-19.5 -46.5t-46.5 -19.5t-46.5 19.5t-19.5 46.5z" />
    <glyph glyph-name="edotaccent" unicode="&#x117;" horiz-adv-x="566" 
d="M518 213h-355q11 -60 55 -92t108 -32q88 0 168 57v-111q-73 -46 -180 -46q-120 0 -197 71t-77 185t73.5 186t177.5 72q97 0 163.5 -64t66.5 -177q0 -29 -3 -49zM290 405q-45 0 -80.5 -27.5t-46.5 -80.5h245q-6 53 -40 80.5t-78 27.5zM219 647q0 27 19.5 46.5t46.5 19.5
t46.5 -19.5t19.5 -46.5t-19.5 -46.5t-46.5 -19.5t-46.5 19.5t-19.5 46.5z" />
    <glyph glyph-name="Eogonek" unicode="&#x118;" horiz-adv-x="556" 
d="M74 0v724h432v-113h-305v-180h265v-108h-265v-210h315v-113q-93 -49 -93 -110q0 -20 12.5 -32t35.5 -12q19 0 45 7v-74q-34 -10 -67 -10q-57 0 -91 28.5t-34 74.5q0 71 70 126l-1 2h-319z" />
    <glyph glyph-name="eogonek" unicode="&#x119;" horiz-adv-x="566" 
d="M494 35q-129 -73 -129 -144q0 -45 49 -45q20 0 43 6v-74q-34 -10 -66 -10q-57 0 -90.5 28.5t-33.5 74.5q0 62 54 116l-1 2h-6q-120 0 -197 71t-77 185t73.5 186t177.5 72q97 0 163.5 -64t66.5 -177q0 -29 -3 -49h-355q11 -60 55 -92t108 -32q88 0 168 57v-111zM290 405
q-45 0 -80.5 -27.5t-46.5 -80.5h245q-6 53 -40 80.5t-78 27.5z" />
    <glyph glyph-name="Ecaron" unicode="&#x11a;" horiz-adv-x="556" 
d="M74 0v724h432v-113h-305v-180h265v-108h-265v-210h315v-113h-442zM461 959l-115 -164h-108l-115 164h88l81 -98l81 98h88z" />
    <glyph glyph-name="ecaron" unicode="&#x11b;" horiz-adv-x="566" 
d="M518 213h-355q11 -60 55 -92t108 -32q88 0 168 57v-111q-73 -46 -180 -46q-120 0 -197 71t-77 185t73.5 186t177.5 72q97 0 163.5 -64t66.5 -177q0 -29 -3 -49zM290 405q-45 0 -80.5 -27.5t-46.5 -80.5h245q-6 53 -40 80.5t-78 27.5zM454 727l-115 -164h-108l-115 164h88
l81 -98l81 98h88z" />
    <glyph glyph-name="Gcircumflex" unicode="&#x11c;" horiz-adv-x="736" 
d="M38 360q0 161 109.5 268t279.5 107q124 0 222 -58v-133q-100 76 -221 76q-116 0 -189.5 -74.5t-73.5 -184.5q0 -109 72 -184t192 -75q68 0 118 25v139h-144v108h269v-318q-109 -67 -249 -67q-167 0 -276 105t-109 266zM237 795l115 164h108l115 -164h-88l-81 98l-81 -98
h-88z" />
    <glyph glyph-name="gcircumflex" unicode="&#x11d;" horiz-adv-x="597" 
d="M107 -195v120q77 -50 158 -50q64 0 101.5 34.5t37.5 95.5v31l-2 2q-50 -36 -125 -36q-98 0 -166.5 68t-68.5 175q0 109 70.5 183.5t184.5 74.5q68 0 124 -28l104 18v-487q0 -111 -69.5 -174t-186.5 -63q-90 0 -162 36zM164 251q0 -65 38.5 -106.5t100.5 -41.5
q59 0 101 31v238q-45 26 -101 26q-64 0 -101.5 -42.5t-37.5 -104.5zM137 563l115 164h108l115 -164h-88l-81 98l-81 -98h-88z" />
    <glyph glyph-name="Gbreve" unicode="&#x11e;" horiz-adv-x="736" 
d="M38 360q0 161 109.5 268t279.5 107q124 0 222 -58v-133q-100 76 -221 76q-116 0 -189.5 -74.5t-73.5 -184.5q0 -109 72 -184t192 -75q68 0 118 25v139h-144v108h269v-318q-109 -67 -249 -67q-167 0 -276 105t-109 266zM406 800q-71 0 -110 42.5t-41 113.5h71
q8 -90 80 -90t80 90h71q-2 -71 -41 -113.5t-110 -42.5z" />
    <glyph glyph-name="gbreve" unicode="&#x11f;" horiz-adv-x="597" 
d="M107 -195v120q77 -50 158 -50q64 0 101.5 34.5t37.5 95.5v31l-2 2q-50 -36 -125 -36q-98 0 -166.5 68t-68.5 175q0 109 70.5 183.5t184.5 74.5q68 0 124 -28l104 18v-487q0 -111 -69.5 -174t-186.5 -63q-90 0 -162 36zM164 251q0 -65 38.5 -106.5t100.5 -41.5
q59 0 101 31v238q-45 26 -101 26q-64 0 -101.5 -42.5t-37.5 -104.5zM306 568q-71 0 -110 42.5t-41 113.5h71q8 -90 80 -90t80 90h71q-2 -71 -41 -113.5t-110 -42.5z" />
    <glyph glyph-name="Gdotaccent" unicode="&#x120;" horiz-adv-x="736" 
d="M38 360q0 161 109.5 268t279.5 107q124 0 222 -58v-133q-100 76 -221 76q-116 0 -189.5 -74.5t-73.5 -184.5q0 -109 72 -184t192 -75q68 0 118 25v139h-144v108h269v-318q-109 -67 -249 -67q-167 0 -276 105t-109 266zM340 879q0 27 19.5 46.5t46.5 19.5t46.5 -19.5
t19.5 -46.5t-19.5 -46.5t-46.5 -19.5t-46.5 19.5t-19.5 46.5z" />
    <glyph glyph-name="gdotaccent" unicode="&#x121;" horiz-adv-x="597" 
d="M107 -195v120q77 -50 158 -50q64 0 101.5 34.5t37.5 95.5v31l-2 2q-50 -36 -125 -36q-98 0 -166.5 68t-68.5 175q0 109 70.5 183.5t184.5 74.5q68 0 124 -28l104 18v-487q0 -111 -69.5 -174t-186.5 -63q-90 0 -162 36zM164 251q0 -65 38.5 -106.5t100.5 -41.5
q59 0 101 31v238q-45 26 -101 26q-64 0 -101.5 -42.5t-37.5 -104.5zM240 647q0 27 19.5 46.5t46.5 19.5t46.5 -19.5t19.5 -46.5t-19.5 -46.5t-46.5 -19.5t-46.5 19.5t-19.5 46.5z" />
    <glyph glyph-name="Gcommaaccent" unicode="&#x122;" horiz-adv-x="736" 
d="M38 360q0 161 109.5 268t279.5 107q124 0 222 -58v-133q-100 76 -221 76q-116 0 -189.5 -74.5t-73.5 -184.5q0 -109 72 -184t192 -75q68 0 118 25v139h-144v108h269v-318q-109 -67 -249 -67q-167 0 -276 105t-109 266zM376 -54h110l-78 -218h-84z" />
    <glyph glyph-name="gcommaaccent" unicode="&#x123;" horiz-adv-x="597" 
d="M107 -195v120q77 -50 158 -50q64 0 101.5 34.5t37.5 95.5v31l-2 2q-50 -36 -125 -36q-98 0 -166.5 68t-68.5 175q0 109 70.5 183.5t184.5 74.5q68 0 124 -28l104 18v-487q0 -111 -69.5 -174t-186.5 -63q-90 0 -162 36zM164 251q0 -65 38.5 -106.5t100.5 -41.5
q59 0 101 31v238q-45 26 -101 26q-64 0 -101.5 -42.5t-37.5 -104.5zM225 556l78 218h84l-52 -218h-110z" />
    <glyph glyph-name="Hcircumflex" unicode="&#x124;" horiz-adv-x="755" 
d="M74 0v724h127v-292h353v292h127v-724h-127v319h-353v-319h-127zM208 795l115 164h108l115 -164h-88l-81 98l-81 -98h-88z" />
    <glyph glyph-name="hcircumflex" unicode="&#x125;" horiz-adv-x="596" 
d="M71 0v764h121v-325l2 -1q70 65 161 65q83 0 130 -52q42 -45 42 -145v-306h-121v285q0 61 -20 84q-23 27 -64 27q-72 0 -130 -62v-334h-121zM-37 826l115 164h108l115 -164h-88l-81 98l-81 -98h-88z" />
    <glyph glyph-name="Hbar" unicode="&#x126;" horiz-adv-x="763" 
d="M4 530v94h74v100h127v-100h353v100h127v-100h74v-94h-74v-530h-127v319h-353v-319h-127v530h-74zM205 432h353v98h-353v-98z" />
    <glyph glyph-name="hbar" unicode="&#x127;" horiz-adv-x="596" 
d="M2 578v91h69v95h121v-95h154v-91h-154v-139l2 -1q70 65 161 65q83 0 130 -52q42 -45 42 -145v-306h-121v285q0 61 -20 84q-23 27 -64 27q-72 0 -130 -62v-334h-121v578h-69z" />
    <glyph glyph-name="Itilde" unicode="&#x128;" horiz-adv-x="274" 
d="M74 0v724h127v-724h-127zM129 835q-48 23 -68 23q-40 0 -83 -47l-2 1v92q32 42 85 42q34 0 84 -24q48 -23 68 -23q40 0 83 47l2 -1v-92q-32 -42 -85 -42q-34 0 -84 24z" />
    <glyph glyph-name="itilde" unicode="&#x129;" horiz-adv-x="263" 
d="M71 0v492h121v-492h-121zM123 603q-48 23 -68 23q-40 0 -83 -47l-2 1v92q32 42 85 42q34 0 84 -24q48 -23 68 -23q40 0 83 47l2 -1v-92q-32 -42 -85 -42q-34 0 -84 24z" />
    <glyph glyph-name="Imacron" unicode="&#x12a;" horiz-adv-x="274" 
d="M74 0v724h127v-724h-127zM-8 835v84h290v-84h-290z" />
    <glyph glyph-name="imacron" unicode="&#x12b;" horiz-adv-x="263" 
d="M71 0v492h121v-492h-121zM-14 603v84h290v-84h-290z" />
    <glyph glyph-name="Ibreve" unicode="&#x12c;" horiz-adv-x="274" 
d="M74 0v724h127v-724h-127zM137 800q-71 0 -110 42.5t-41 113.5h71q8 -90 80 -90t80 90h71q-2 -71 -41 -113.5t-110 -42.5z" />
    <glyph glyph-name="ibreve" unicode="&#x12d;" horiz-adv-x="263" 
d="M71 0v492h121v-492h-121zM131 568q-71 0 -110 42.5t-41 113.5h71q8 -90 80 -90t80 90h71q-2 -71 -41 -113.5t-110 -42.5z" />
    <glyph glyph-name="Iogonek" unicode="&#x12e;" horiz-adv-x="274" 
d="M74 0v724h127v-724q-39 -23 -59 -52.5t-20 -56.5q0 -45 48 -45q20 0 43 6v-74q-31 -9 -66 -9q-57 0 -91 30.5t-34 78.5q0 61 52 122z" />
    <glyph glyph-name="iogonek" unicode="&#x12f;" horiz-adv-x="263" 
d="M19 -122q0 63 52 122v492h121v-492q-73 -52 -73 -109q0 -45 48 -45q19 0 41 6v-74q-31 -9 -63 -9q-57 0 -91.5 30.5t-34.5 78.5zM56 655q0 31 22.5 53t53.5 22t53 -22t22 -53t-22.5 -53t-53.5 -22t-53 22t-22 53z" />
    <glyph glyph-name="Idotaccent" unicode="&#x130;" horiz-adv-x="274" 
d="M74 0v724h127v-724h-127zM71 879q0 27 19.5 46.5t46.5 19.5t46.5 -19.5t19.5 -46.5t-19.5 -46.5t-46.5 -19.5t-46.5 19.5t-19.5 46.5z" />
    <glyph glyph-name="dotlessi" unicode="&#x131;" horiz-adv-x="263" 
d="M71 0v492h121v-492h-121z" />
    <glyph glyph-name="IJ" unicode="&#x132;" horiz-adv-x="671" 
d="M74 0v724h127v-724h-127zM474 216v508h127v-503q0 -119 -44 -171q-52 -61 -156 -61q-59 0 -106 20v114q53 -21 98 -21q50 0 65.5 27t15.5 87z" />
    <glyph glyph-name="ij" unicode="&#x133;" horiz-adv-x="528" 
d="M71 0v492h121v-492h-121zM56 655q0 31 22.5 53t53.5 22t53 -22t22 -53t-22.5 -53t-53.5 -22t-53 22t-22 53zM336 -40v532h121v-525q0 -106 -39 -148q-46 -50 -135 -50q-39 0 -65 8v103q27 -6 54 -6q38 0 51 21t13 65zM321 655q0 31 22.5 53t53.5 22t53 -22t22 -53
t-22.5 -53t-53.5 -22t-53 22t-22 53z" />
    <glyph glyph-name="Jcircumflex" unicode="&#x134;" horiz-adv-x="274" 
d="M77 216v508h127v-503q0 -119 -44 -171q-52 -61 -156 -61q-59 0 -106 20v114q53 -21 98 -21q50 0 65.5 27t15.5 87zM-29 795l115 164h108l115 -164h-88l-81 98l-81 -98h-88z" />
    <glyph glyph-name="jcircumflex" unicode="&#x135;" horiz-adv-x="265" 
d="M73 -40v532h121v-525q0 -106 -39 -148q-46 -50 -138 -50q-33 0 -62 6v105q29 -6 54 -6q38 0 51 21t13 65zM-34 563l115 164h108l115 -164h-88l-81 98l-81 -98h-88z" />
    <glyph glyph-name="Kcommaaccent" unicode="&#x136;" horiz-adv-x="651" 
d="M74 0v724h127v-324l2 -1l285 325h153l-299 -336l325 -388h-160l-304 368l-2 -1v-367h-127zM295 -54h110l-78 -218h-84z" />
    <glyph glyph-name="kcommaaccent" unicode="&#x137;" horiz-adv-x="555" 
d="M71 0v764h121v-484l2 -1l196 213h144l-206 -220l225 -272h-149l-210 259l-2 -1v-258h-121zM247 -54h110l-78 -218h-84z" />
    <glyph glyph-name="kgreenlandic" unicode="&#x138;" horiz-adv-x="555" 
d="M71 0v492h121v-212l2 -1l196 213h144l-206 -220l225 -272h-149l-210 259l-2 -1v-258h-121z" />
    <glyph glyph-name="Lacute" unicode="&#x139;" horiz-adv-x="551" 
d="M74 0v724h127v-611h329v-113h-456zM296 959l-113 -164h-86l81 164h118z" />
    <glyph glyph-name="lacute" unicode="&#x13a;" horiz-adv-x="263" 
d="M71 0v764h121v-764h-121zM271 990l-113 -164h-86l81 164h118z" />
    <glyph glyph-name="Lcommaaccent" unicode="&#x13b;" horiz-adv-x="551" 
d="M74 0v724h127v-611h329v-113h-456zM265 -54h110l-78 -218h-84z" />
    <glyph glyph-name="lcommaaccent" unicode="&#x13c;" horiz-adv-x="263" 
d="M71 0v764h121v-764h-121zM101 -54h110l-78 -218h-84z" />
    <glyph glyph-name="Lcaron" unicode="&#x13d;" horiz-adv-x="551" 
d="M74 0v724h127v-611h329v-113h-456zM290 505l57 275h109l-88 -275h-78z" />
    <glyph glyph-name="lcaron" unicode="&#x13e;" horiz-adv-x="379" 
d="M71 0v764h121v-764h-121zM296 764h110l-78 -218h-84z" />
    <glyph glyph-name="Ldot" unicode="&#x13f;" horiz-adv-x="551" 
d="M74 0v724h127v-611h329v-113h-456zM334 398q0 32 23 55t55 23t55 -23t23 -55t-23 -55t-55 -23t-55 23t-23 55z" />
    <glyph glyph-name="ldot" unicode="&#x140;" horiz-adv-x="389" 
d="M71 0v764h121v-764h-121zM259 325q0 27 19.5 46.5t46.5 19.5t46.5 -19.5t19.5 -46.5t-19.5 -46.5t-46.5 -19.5t-46.5 19.5t-19.5 46.5z" />
    <glyph glyph-name="Lslash" unicode="&#x141;" horiz-adv-x="557" 
d="M80 0v257l-90 -61v113l90 61v354h127v-269l125 84v-113l-125 -84v-229h329v-113h-456z" />
    <glyph glyph-name="lslash" unicode="&#x142;" horiz-adv-x="279" 
d="M79 0v275l-82 -55v112l82 55v377h121v-296l82 55v-112l-82 -55v-356h-121z" />
    <glyph glyph-name="Nacute" unicode="&#x143;" horiz-adv-x="780" 
d="M196 0h-123v724h120l262 -349q66 -88 129 -175l2 1q-2 68 -2 219v304h123v-724h-120l-262 349q-66 88 -129 175l-2 -1q2 -68 2 -219v-304zM520 959l-113 -164h-86l81 164h118z" />
    <glyph glyph-name="nacute" unicode="&#x144;" horiz-adv-x="596" 
d="M71 0v492h120v-53l2 -1q72 65 162 65q83 0 130 -52q42 -45 42 -145v-306h-121v285q0 61 -20 84q-22 27 -65 27q-72 0 -129 -62v-334h-121zM428 727l-113 -164h-86l81 164h118z" />
    <glyph glyph-name="Ncommaaccent" unicode="&#x145;" horiz-adv-x="780" 
d="M196 0h-123v724h120l262 -349q66 -88 129 -175l2 1q-2 68 -2 219v304h123v-724h-120l-262 349q-66 88 -129 175l-2 -1q2 -68 2 -219v-304zM360 -54h110l-78 -218h-84z" />
    <glyph glyph-name="ncommaaccent" unicode="&#x146;" horiz-adv-x="596" 
d="M71 0v492h120v-53l2 -1q72 65 162 65q83 0 130 -52q42 -45 42 -145v-306h-121v285q0 61 -20 84q-22 27 -65 27q-72 0 -129 -62v-334h-121zM268 -54h110l-78 -218h-84z" />
    <glyph glyph-name="Ncaron" unicode="&#x147;" horiz-adv-x="780" 
d="M196 0h-123v724h120l262 -349q66 -88 129 -175l2 1q-2 68 -2 219v304h123v-724h-120l-262 349q-66 88 -129 175l-2 -1q2 -68 2 -219v-304zM559 959l-115 -164h-108l-115 164h88l81 -98l81 98h88z" />
    <glyph glyph-name="ncaron" unicode="&#x148;" horiz-adv-x="596" 
d="M71 0v492h120v-53l2 -1q72 65 162 65q83 0 130 -52q42 -45 42 -145v-306h-121v285q0 61 -20 84q-22 27 -65 27q-72 0 -129 -62v-334h-121zM467 727l-115 -164h-108l-115 164h88l81 -98l81 98h88z" />
    <glyph glyph-name="napostrophe" unicode="&#x149;" horiz-adv-x="596" 
d="M71 0v492h120v-53l2 -1q72 65 162 65q83 0 130 -52q42 -45 42 -145v-306h-121v285q0 61 -20 84q-22 27 -65 27q-72 0 -129 -62v-334h-121zM111 772h110l-78 -218h-84z" />
    <glyph glyph-name="Eng" unicode="&#x14a;" horiz-adv-x="780" 
d="M580 -4v13l-255 340q-66 88 -129 175l-2 -1q2 -68 2 -219v-304h-123v724h120l262 -349q66 -88 129 -175l2 1q-2 68 -2 219v304h123v-723q0 -119 -44 -171q-52 -61 -156 -61q-59 0 -106 20v114q53 -21 98 -21q50 0 65.5 27t15.5 87z" />
    <glyph glyph-name="eng" unicode="&#x14b;" horiz-adv-x="596" 
d="M71 0v492h120v-53l2 -1q72 65 162 65q83 0 130 -52q42 -45 42 -145v-339q0 -106 -39 -148q-46 -50 -136 -50q-37 0 -63 8v103q25 -6 52 -6q39 0 52 20.5t13 65.5v325q0 61 -20 84q-22 27 -65 27q-72 0 -129 -62v-334h-121z" />
    <glyph glyph-name="Omacron" unicode="&#x14c;" horiz-adv-x="820" 
d="M410 105q105 0 175.5 74t70.5 183t-70.5 183t-175.5 74t-175.5 -74t-70.5 -183t70.5 -183t175.5 -74zM410 -11q-159 0 -266 107t-107 266t107 266t266 107t266 -107t107 -266t-107 -266t-266 -107zM265 835v84h290v-84h-290z" />
    <glyph glyph-name="omacron" unicode="&#x14d;" horiz-adv-x="612" 
d="M160 246q0 -64 41.5 -107.5t104.5 -43.5t104.5 43.5t41.5 107.5t-41.5 107.5t-104.5 43.5t-104.5 -43.5t-41.5 -107.5zM39 246q0 109 76.5 183t190.5 74t190.5 -74t76.5 -183t-76.5 -183t-190.5 -74t-190.5 74t-76.5 183zM161 603v84h290v-84h-290z" />
    <glyph glyph-name="Obreve" unicode="&#x14e;" horiz-adv-x="820" 
d="M410 105q105 0 175.5 74t70.5 183t-70.5 183t-175.5 74t-175.5 -74t-70.5 -183t70.5 -183t175.5 -74zM410 -11q-159 0 -266 107t-107 266t107 266t266 107t266 -107t107 -266t-107 -266t-266 -107zM410 800q-71 0 -110 42.5t-41 113.5h71q8 -90 80 -90t80 90h71
q-2 -71 -41 -113.5t-110 -42.5z" />
    <glyph glyph-name="obreve" unicode="&#x14f;" horiz-adv-x="612" 
d="M160 246q0 -64 41.5 -107.5t104.5 -43.5t104.5 43.5t41.5 107.5t-41.5 107.5t-104.5 43.5t-104.5 -43.5t-41.5 -107.5zM39 246q0 109 76.5 183t190.5 74t190.5 -74t76.5 -183t-76.5 -183t-190.5 -74t-190.5 74t-76.5 183zM306 568q-71 0 -110 42.5t-41 113.5h71
q8 -90 80 -90t80 90h71q-2 -71 -41 -113.5t-110 -42.5z" />
    <glyph glyph-name="Ohungarumlaut" unicode="&#x150;" horiz-adv-x="820" 
d="M410 105q105 0 175.5 74t70.5 183t-70.5 183t-175.5 74t-175.5 -74t-70.5 -183t70.5 -183t175.5 -74zM410 -11q-159 0 -266 107t-107 266t107 266t266 107t266 -107t107 -266t-107 -266t-266 -107zM420 795l78 164h95l-100 -164h-73zM269 795l78 164h95l-100 -164h-73z
" />
    <glyph glyph-name="ohungarumlaut" unicode="&#x151;" horiz-adv-x="612" 
d="M160 246q0 -64 41.5 -107.5t104.5 -43.5t104.5 43.5t41.5 107.5t-41.5 107.5t-104.5 43.5t-104.5 -43.5t-41.5 -107.5zM39 246q0 109 76.5 183t190.5 74t190.5 -74t76.5 -183t-76.5 -183t-190.5 -74t-190.5 74t-76.5 183zM316 563l78 164h95l-100 -164h-73zM165 563
l78 164h95l-100 -164h-73z" />
    <glyph glyph-name="OE" unicode="&#x152;" horiz-adv-x="933" 
d="M188 67q-151 98 -151 295q0 181 131 281q106 81 302 81h413v-113h-295v-180h255v-108h-255v-210h305v-113h-425q-177 0 -280 67zM265 160q38 -26 82 -35.5t114 -11.5v498q-137 -3 -203 -52q-94 -69 -94 -198q0 -131 101 -201z" />
    <glyph glyph-name="oe" unicode="&#x153;" horiz-adv-x="970" 
d="M39 246q0 109 75 183t188 74q130 0 203 -97h2q72 97 193 97q95 0 160 -64t65 -178q0 -30 -3 -48h-351q12 -60 55 -92t106 -32q84 0 166 57v-111q-73 -46 -177 -46q-142 0 -214 97h-2q-74 -97 -203 -97q-113 0 -188 73.5t-75 183.5zM160 247q0 -64 41 -108t103 -44
q61 0 102 43.5t41 107.5t-41.5 107.5t-103.5 43.5q-61 0 -101.5 -43t-40.5 -107zM696 405q-45 0 -79.5 -27.5t-45.5 -80.5h241q-5 46 -36.5 77t-79.5 31z" />
    <glyph glyph-name="Racute" unicode="&#x154;" horiz-adv-x="650" 
d="M74 0v724h211q137 0 203 -36q104 -56 104 -176q0 -74 -42.5 -127t-118.5 -72l218 -313h-149l-202 299h-97v-299h-127zM201 397h101q86 0 126 29q37 27 37 78q0 59 -52 87q-38 20 -135 20h-77v-214zM435 959l-113 -164h-86l81 164h118z" />
    <glyph glyph-name="racute" unicode="&#x155;" horiz-adv-x="384" 
d="M71 0v492h120v-69l2 -1q53 75 143 75q18 0 33 -4v-116q-20 5 -40 5q-85 0 -137 -73v-309h-121zM322 727l-113 -164h-86l81 164h118z" />
    <glyph glyph-name="Rcommaaccent" unicode="&#x156;" horiz-adv-x="650" 
d="M74 0v724h211q137 0 203 -36q104 -56 104 -176q0 -74 -42.5 -127t-118.5 -72l218 -313h-149l-202 299h-97v-299h-127zM201 397h101q86 0 126 29q37 27 37 78q0 59 -52 87q-38 20 -135 20h-77v-214zM275 -54h110l-78 -218h-84z" />
    <glyph glyph-name="rcommaaccent" unicode="&#x157;" horiz-adv-x="384" 
d="M71 0v492h120v-69l2 -1q53 75 143 75q18 0 33 -4v-116q-20 5 -40 5q-85 0 -137 -73v-309h-121zM116 -54h110l-78 -218h-84z" />
    <glyph glyph-name="Rcaron" unicode="&#x158;" horiz-adv-x="650" 
d="M74 0v724h211q137 0 203 -36q104 -56 104 -176q0 -74 -42.5 -127t-118.5 -72l218 -313h-149l-202 299h-97v-299h-127zM201 397h101q86 0 126 29q37 27 37 78q0 59 -52 87q-38 20 -135 20h-77v-214zM474 959l-115 -164h-108l-115 164h88l81 -98l81 98h88z" />
    <glyph glyph-name="rcaron" unicode="&#x159;" horiz-adv-x="384" 
d="M71 0v492h120v-69l2 -1q53 75 143 75q18 0 33 -4v-116q-20 5 -40 5q-85 0 -137 -73v-309h-121zM361 727l-115 -164h-108l-115 164h88l81 -98l81 98h88z" />
    <glyph glyph-name="Sacute" unicode="&#x15a;" horiz-adv-x="569" 
d="M63 42v133q51 -35 111.5 -53.5t109.5 -18.5q57 0 90.5 24.5t33.5 72.5q0 17 -3.5 30t-14.5 24t-18.5 17.5t-28 14.5t-29.5 11t-38 11t-38 11q-44 14 -75.5 28.5t-61 38t-44.5 58t-15 80.5q0 98 66.5 154.5t177.5 56.5q124 0 215 -54v-128q-104 68 -216 68
q-53 0 -84.5 -22t-31.5 -66q0 -16 4 -28.5t14 -22.5t18.5 -16.5t26.5 -13.5t29 -11t35 -10.5t36 -10.5q46 -14 78 -29t63 -39.5t46.5 -60.5t15.5 -84q0 -101 -69 -159.5t-183 -58.5q-123 0 -220 53zM414 959l-113 -164h-86l81 164h118z" />
    <glyph glyph-name="sacute" unicode="&#x15b;" horiz-adv-x="503" 
d="M61 27v115q90 -54 189 -54q90 0 90 52q0 14 -6 24t-22 16t-28 8.5t-39.5 7t-42.5 7.5q-78 17 -118.5 49t-40.5 94q1 75 59 116t150 41q102 0 182 -39v-111q-87 51 -183 51q-85 0 -85 -48q0 -14 6 -23t21 -14.5t27.5 -8.5t39 -7.5t41.5 -7.5q79 -16 120.5 -48t41.5 -97
q-1 -77 -60.5 -119t-154.5 -42q-105 0 -187 38zM381 727l-113 -164h-86l81 164h118z" />
    <glyph glyph-name="Scircumflex" unicode="&#x15c;" horiz-adv-x="569" 
d="M63 42v133q51 -35 111.5 -53.5t109.5 -18.5q57 0 90.5 24.5t33.5 72.5q0 17 -3.5 30t-14.5 24t-18.5 17.5t-28 14.5t-29.5 11t-38 11t-38 11q-44 14 -75.5 28.5t-61 38t-44.5 58t-15 80.5q0 98 66.5 154.5t177.5 56.5q124 0 215 -54v-128q-104 68 -216 68
q-53 0 -84.5 -22t-31.5 -66q0 -16 4 -28.5t14 -22.5t18.5 -16.5t26.5 -13.5t29 -11t35 -10.5t36 -10.5q46 -14 78 -29t63 -39.5t46.5 -60.5t15.5 -84q0 -101 -69 -159.5t-183 -58.5q-123 0 -220 53zM115 795l115 164h108l115 -164h-88l-81 98l-81 -98h-88z" />
    <glyph glyph-name="scircumflex" unicode="&#x15d;" horiz-adv-x="503" 
d="M61 27v115q90 -54 189 -54q90 0 90 52q0 14 -6 24t-22 16t-28 8.5t-39.5 7t-42.5 7.5q-78 17 -118.5 49t-40.5 94q1 75 59 116t150 41q102 0 182 -39v-111q-87 51 -183 51q-85 0 -85 -48q0 -14 6 -23t21 -14.5t27.5 -8.5t39 -7.5t41.5 -7.5q79 -16 120.5 -48t41.5 -97
q-1 -77 -60.5 -119t-154.5 -42q-105 0 -187 38zM82 563l115 164h108l115 -164h-88l-81 98l-81 -98h-88z" />
    <glyph glyph-name="Scedilla" unicode="&#x15e;" horiz-adv-x="569" 
d="M239 -88l24 78q-115 5 -200 52v133q51 -35 111.5 -53.5t109.5 -18.5q57 0 90.5 24.5t33.5 72.5q0 17 -3.5 30t-14.5 24t-18.5 17.5t-28 14.5t-29.5 11t-38 11t-38 11q-44 14 -75.5 28.5t-61 38t-44.5 58t-15 80.5q0 98 66.5 154.5t177.5 56.5q124 0 215 -54v-128
q-104 68 -216 68q-53 0 -84.5 -22t-31.5 -66q0 -16 4 -28.5t14 -22.5t18.5 -16.5t26.5 -13.5t29 -11t35 -10.5t36 -10.5q46 -14 78 -29t63 -39.5t46.5 -60.5t15.5 -84q0 -93 -59 -150.5t-159 -65.5l-9 -31q88 -20 88 -91q0 -41 -30 -65.5t-79 -24.5q-46 0 -84 18l18 57
q38 -19 65 -19q18 0 30.5 8t12.5 23q0 40 -90 46z" />
    <glyph glyph-name="scedilla" unicode="&#x15f;" horiz-adv-x="503" 
d="M202 -88l24 78q-93 3 -165 37v115q90 -54 189 -54q90 0 90 52q0 14 -6 24t-22 16t-28 8.5t-39.5 7t-42.5 7.5q-78 17 -118.5 49t-40.5 94q1 75 59 116t150 41q102 0 182 -39v-111q-87 51 -183 51q-85 0 -85 -48q0 -14 6 -23t21 -14.5t27.5 -8.5t39 -7.5t41.5 -7.5
q79 -16 120.5 -48t41.5 -97q-1 -70 -50.5 -111t-132.5 -48l-9 -31q88 -20 88 -91q0 -41 -30 -65.5t-79 -24.5q-46 0 -84 18l18 57q38 -19 65 -19q18 0 30.5 8t12.5 23q0 40 -90 46z" />
    <glyph glyph-name="Scaron" unicode="&#x160;" horiz-adv-x="569" 
d="M63 42v133q51 -35 111.5 -53.5t109.5 -18.5q57 0 90.5 24.5t33.5 72.5q0 17 -3.5 30t-14.5 24t-18.5 17.5t-28 14.5t-29.5 11t-38 11t-38 11q-44 14 -75.5 28.5t-61 38t-44.5 58t-15 80.5q0 98 66.5 154.5t177.5 56.5q124 0 215 -54v-128q-104 68 -216 68
q-53 0 -84.5 -22t-31.5 -66q0 -16 4 -28.5t14 -22.5t18.5 -16.5t26.5 -13.5t29 -11t35 -10.5t36 -10.5q46 -14 78 -29t63 -39.5t46.5 -60.5t15.5 -84q0 -101 -69 -159.5t-183 -58.5q-123 0 -220 53zM453 959l-115 -164h-108l-115 164h88l81 -98l81 98h88z" />
    <glyph glyph-name="scaron" unicode="&#x161;" horiz-adv-x="503" 
d="M61 27v115q90 -54 189 -54q90 0 90 52q0 14 -6 24t-22 16t-28 8.5t-39.5 7t-42.5 7.5q-78 17 -118.5 49t-40.5 94q1 75 59 116t150 41q102 0 182 -39v-111q-87 51 -183 51q-85 0 -85 -48q0 -14 6 -23t21 -14.5t27.5 -8.5t39 -7.5t41.5 -7.5q79 -16 120.5 -48t41.5 -97
q-1 -77 -60.5 -119t-154.5 -42q-105 0 -187 38zM420 727l-115 -164h-108l-115 164h88l81 -98l81 98h88z" />
    <glyph glyph-name="Tcommaaccent" unicode="&#x162;" horiz-adv-x="639" 
d="M255 0v611h-237v113h603v-113h-239v-611h-33l-12 -40q88 -20 88 -91q0 -41 -30 -65.5t-79 -24.5q-45 0 -83 18l17 57q38 -19 65 -19q18 0 30.5 8t12.5 23q0 40 -90 46l27 88h-40z" />
    <glyph glyph-name="tcommaaccent" unicode="&#x163;" horiz-adv-x="400" 
d="M190 -88l26 84q-42 12 -67 41q-40 43 -40 141v211h-86v103h86v131l121 21v-152h139v-103h-139v-194q0 -48 13.5 -74.5t51.5 -26.5q36 0 74 21v-103q-39 -23 -101 -23l-9 -29q88 -20 88 -91q0 -41 -30 -65.5t-79 -24.5q-45 0 -83 18l17 57q38 -19 65 -19q18 0 30.5 8
t12.5 23q0 40 -90 46z" />
    <glyph glyph-name="Tcaron" unicode="&#x164;" horiz-adv-x="639" 
d="M255 0v611h-237v113h603v-113h-239v-611h-127zM488 959l-115 -164h-108l-115 164h88l81 -98l81 98h88z" />
    <glyph glyph-name="tcaron" unicode="&#x165;" horiz-adv-x="400" 
d="M149 37q-40 43 -40 141v211h-86v103h86v131l121 21v-152h139v-103h-139v-194q0 -48 13.5 -74.5t51.5 -26.5q36 0 74 21v-103q-39 -23 -100 -23q-77 0 -120 48zM348 772h110l-78 -218h-84z" />
    <glyph glyph-name="Tbar" unicode="&#x166;" horiz-adv-x="639" 
d="M133 304v94h123v213h-237v113h603v-113h-239v-213h123v-94h-123v-304h-127v304h-123z" />
    <glyph glyph-name="tbar" unicode="&#x167;" horiz-adv-x="409" 
d="M27 210v99h86v84h-86v99h86v131l121 21v-152h139v-99h-139v-84h139v-99h-139v-18q0 -47 13.5 -73.5t51.5 -26.5t74 20v-100q-39 -23 -100 -23q-77 0 -120 48q-40 43 -40 141v32h-86z" />
    <glyph glyph-name="Utilde" unicode="&#x168;" horiz-adv-x="740" 
d="M117 106q-51 76 -51 238v380h127v-372q0 -122 28 -171q43 -76 153 -76q106 0 148 73q29 49 29 172v374h123v-372q0 -171 -52 -248q-78 -115 -253 -115t-252 117zM364 835q-48 23 -68 23q-40 0 -83 -47l-2 1v92q32 42 85 42q34 0 84 -24q48 -23 68 -23q40 0 83 47l2 -1
v-92q-32 -42 -85 -42q-34 0 -84 24z" />
    <glyph glyph-name="utilde" unicode="&#x169;" horiz-adv-x="599" 
d="M114 41q-44 48 -44 149v302h121v-282q0 -62 22 -87q23 -27 65 -27q71 0 128 64v332h121v-492h-120v54l-2 1q-71 -66 -160 -66q-84 0 -131 52zM291 603q-48 23 -68 23q-40 0 -83 -47l-2 1v92q32 42 85 42q34 0 84 -24q48 -23 68 -23q40 0 83 47l2 -1v-92q-32 -42 -85 -42
q-34 0 -84 24z" />
    <glyph glyph-name="Umacron" unicode="&#x16a;" horiz-adv-x="740" 
d="M117 106q-51 76 -51 238v380h127v-372q0 -122 28 -171q43 -76 153 -76q106 0 148 73q29 49 29 172v374h123v-372q0 -171 -52 -248q-78 -115 -253 -115t-252 117zM227 835v84h290v-84h-290z" />
    <glyph glyph-name="umacron" unicode="&#x16b;" horiz-adv-x="599" 
d="M114 41q-44 48 -44 149v302h121v-282q0 -62 22 -87q23 -27 65 -27q71 0 128 64v332h121v-492h-120v54l-2 1q-71 -66 -160 -66q-84 0 -131 52zM154 603v84h290v-84h-290z" />
    <glyph glyph-name="Ubreve" unicode="&#x16c;" horiz-adv-x="740" 
d="M117 106q-51 76 -51 238v380h127v-372q0 -122 28 -171q43 -76 153 -76q106 0 148 73q29 49 29 172v374h123v-372q0 -171 -52 -248q-78 -115 -253 -115t-252 117zM372 800q-71 0 -110 42.5t-41 113.5h71q8 -90 80 -90t80 90h71q-2 -71 -41 -113.5t-110 -42.5z" />
    <glyph glyph-name="ubreve" unicode="&#x16d;" horiz-adv-x="599" 
d="M114 41q-44 48 -44 149v302h121v-282q0 -62 22 -87q23 -27 65 -27q71 0 128 64v332h121v-492h-120v54l-2 1q-71 -66 -160 -66q-84 0 -131 52zM299 568q-71 0 -110 42.5t-41 113.5h71q8 -90 80 -90t80 90h71q-2 -71 -41 -113.5t-110 -42.5z" />
    <glyph glyph-name="Uring" unicode="&#x16e;" horiz-adv-x="740" 
d="M117 106q-51 76 -51 238v380h127v-372q0 -122 28 -171q43 -76 153 -76q106 0 148 73q29 49 29 172v374h123v-372q0 -171 -52 -248q-78 -115 -253 -115t-252 117zM311 897q0 -26 16.5 -44t44.5 -18t44.5 18t16.5 44t-16.5 44t-44.5 18t-44.5 -18t-16.5 -44zM496 897
q0 -51 -35.5 -85t-88.5 -34t-88.5 34t-35.5 85t35.5 85t88.5 34t88.5 -34t35.5 -85z" />
    <glyph glyph-name="uring" unicode="&#x16f;" horiz-adv-x="599" 
d="M114 41q-44 48 -44 149v302h121v-282q0 -62 22 -87q23 -27 65 -27q71 0 128 64v332h121v-492h-120v54l-2 1q-71 -66 -160 -66q-84 0 -131 52zM238 665q0 -26 16.5 -44t44.5 -18t44.5 18t16.5 44t-16.5 44t-44.5 18t-44.5 -18t-16.5 -44zM423 665q0 -51 -35.5 -85
t-88.5 -34t-88.5 34t-35.5 85t35.5 85t88.5 34t88.5 -34t35.5 -85z" />
    <glyph glyph-name="Uhungarumlaut" unicode="&#x170;" horiz-adv-x="740" 
d="M117 106q-51 76 -51 238v380h127v-372q0 -122 28 -171q43 -76 153 -76q106 0 148 73q29 49 29 172v374h123v-372q0 -171 -52 -248q-78 -115 -253 -115t-252 117zM382 795l78 164h95l-100 -164h-73zM231 795l78 164h95l-100 -164h-73z" />
    <glyph glyph-name="uhungarumlaut" unicode="&#x171;" horiz-adv-x="599" 
d="M114 41q-44 48 -44 149v302h121v-282q0 -62 22 -87q23 -27 65 -27q71 0 128 64v332h121v-492h-120v54l-2 1q-71 -66 -160 -66q-84 0 -131 52zM309 563l78 164h95l-100 -164h-73zM158 563l78 164h95l-100 -164h-73z" />
    <glyph glyph-name="Uogonek" unicode="&#x172;" horiz-adv-x="740" 
d="M117 106q-51 76 -51 238v380h127v-372q0 -122 28 -171q43 -76 153 -76q106 0 148 73q29 49 29 172v374h123v-372q0 -171 -52 -248q-57 -86 -178 -108q-74 -54 -74 -106q0 -20 12.5 -32t35.5 -12q19 0 45 7v-74q-34 -10 -67 -10q-57 0 -91 28.5t-34 74.5q0 63 57 117v2
q-146 14 -211 115z" />
    <glyph glyph-name="uogonek" unicode="&#x173;" horiz-adv-x="599" 
d="M114 41q-44 48 -44 149v302h121v-282q0 -62 22 -87q23 -27 65 -27q71 0 128 64v332h121v-492q-87 -48 -87 -108q0 -46 48 -46q14 0 44 6v-73q-28 -10 -67 -10q-57 0 -91 28.5t-34 74.5q0 72 67 128v54l-2 1q-71 -66 -160 -66q-84 0 -131 52z" />
    <glyph glyph-name="Wcircumflex" unicode="&#x174;" horiz-adv-x="1031" 
d="M231 0l-223 724h135l106 -352q29 -96 55 -191h2q18 66 57 192l109 351h93l109 -352q36 -115 57 -191h2q33 119 55 192l106 351h129l-224 -724h-135l-96 310q-36 118 -52 174h-2q-22 -76 -51 -172l-97 -312h-135zM348 795l115 164h108l115 -164h-88l-81 98l-81 -98h-88z
" />
    <glyph glyph-name="wcircumflex" unicode="&#x175;" horiz-adv-x="825" 
d="M186 0l-169 492h128l62 -188q23 -71 46 -147h2q25 77 50 147l66 188h88l67 -188q32 -91 50 -147h2q17 57 46 147l62 188h122l-169 -492h-119l-61 171q-23 64 -46 137h-2q-22 -70 -46 -137l-60 -171h-119zM247 563l115 164h108l115 -164h-88l-81 98l-81 -98h-88z" />
    <glyph glyph-name="Ycircumflex" unicode="&#x176;" horiz-adv-x="672" 
d="M274 0v327l-280 397h148l105 -153q56 -82 91 -136h2q43 66 92 138l103 151h143l-277 -396v-328h-127zM170 795l115 164h108l115 -164h-88l-81 98l-81 -98h-88z" />
    <glyph glyph-name="ycircumflex" unicode="&#x177;" horiz-adv-x="553" 
d="M212 -220h-126l131 274l-203 438h131l67 -152q43 -98 66 -155h2q21 51 72 165l64 142h123zM110 563l115 164h108l115 -164h-88l-81 98l-81 -98h-88z" />
    <glyph glyph-name="Ydieresis" unicode="&#x178;" horiz-adv-x="672" 
d="M274 0v327l-280 397h148l105 -153q56 -82 91 -136h2q43 66 92 138l103 151h143l-277 -396v-328h-127zM378 879q0 27 19.5 46.5t46.5 19.5t46.5 -19.5t19.5 -46.5t-19.5 -46.5t-46.5 -19.5t-46.5 19.5t-19.5 46.5zM168 879q0 27 19.5 46.5t46.5 19.5t46.5 -19.5
t19.5 -46.5t-19.5 -46.5t-46.5 -19.5t-46.5 19.5t-19.5 46.5z" />
    <glyph glyph-name="Zacute" unicode="&#x179;" horiz-adv-x="645" 
d="M607 0h-580l-1 2l374 607l-1 2h-346v113h561l1 -2l-374 -607l1 -2h365v-113zM456 959l-113 -164h-86l81 164h118z" />
    <glyph glyph-name="zacute" unicode="&#x17a;" horiz-adv-x="483" 
d="M454 0h-436l-1 2l245 385l-1 2h-223v103h421l1 -2l-245 -385l1 -2h238v-103zM372 727l-113 -164h-86l81 164h118z" />
    <glyph glyph-name="Zdotaccent" unicode="&#x17b;" horiz-adv-x="645" 
d="M607 0h-580l-1 2l374 607l-1 2h-346v113h561l1 -2l-374 -607l1 -2h365v-113zM260 879q0 27 19.5 46.5t46.5 19.5t46.5 -19.5t19.5 -46.5t-19.5 -46.5t-46.5 -19.5t-46.5 19.5t-19.5 46.5z" />
    <glyph glyph-name="zdotaccent" unicode="&#x17c;" horiz-adv-x="483" 
d="M454 0h-436l-1 2l245 385l-1 2h-223v103h421l1 -2l-245 -385l1 -2h238v-103zM176 647q0 27 19.5 46.5t46.5 19.5t46.5 -19.5t19.5 -46.5t-19.5 -46.5t-46.5 -19.5t-46.5 19.5t-19.5 46.5z" />
    <glyph glyph-name="Zcaron" unicode="&#x17d;" horiz-adv-x="645" 
d="M607 0h-580l-1 2l374 607l-1 2h-346v113h561l1 -2l-374 -607l1 -2h365v-113zM495 959l-115 -164h-108l-115 164h88l81 -98l81 98h88z" />
    <glyph glyph-name="zcaron" unicode="&#x17e;" horiz-adv-x="483" 
d="M454 0h-436l-1 2l245 385l-1 2h-223v103h421l1 -2l-245 -385l1 -2h238v-103zM411 727l-115 -164h-108l-115 164h88l81 -98l81 98h88z" />
    <glyph glyph-name="longs" unicode="&#x17f;" horiz-adv-x="301" 
d="M97 0v389h-74v103h74v84q0 109 48 156q44 43 127 43q46 0 79 -12v-102q-34 9 -68 9q-38 0 -51.5 -21.5t-13.5 -61.5v-587h-121z" />
    <glyph glyph-name="florin" unicode="&#x192;" horiz-adv-x="520" 
d="M117 389l17 103h84l18 101q31 173 211 173q38 0 62 -7v-105q-29 7 -62 7q-80 0 -94 -78l-16 -91h121l-17 -103h-122l-79 -450q-30 -170 -196 -170q-31 0 -63 6v108q36 -9 62 -9q67 0 80 74l77 441h-83z" />
    <glyph glyph-name="AEacute" unicode="&#x1fc;" horiz-adv-x="948" 
d="M-2 0l410 724h490v-113h-295v-180h255v-108h-255v-210h305v-113h-432v177h-245l-99 -177h-134zM364 414l-75 -133h187v127q0 136 2 210h-2q-52 -97 -112 -204zM768 959l-113 -164h-86l81 164h118z" />
    <glyph glyph-name="aeacute" unicode="&#x1fd;" horiz-adv-x="848" 
d="M412 438h2q65 65 162 65q95 0 161 -64t66 -177q0 -31 -3 -49h-352q12 -60 55 -92t106 -32q85 0 167 57v-111q-73 -46 -181 -46q-129 0 -201 79q-84 -79 -185 -79q-70 0 -117 34q-55 40 -55 112q0 76 63 119q50 34 136 34q44 0 91 -10v28q0 44 -24 67q-25 24 -81 24
q-76 0 -144 -44v110q69 40 163 40q117 0 171 -65zM574 405q-45 0 -80 -27.5t-46 -80.5h241q-5 47 -36 77.5t-79 30.5zM353 133q-15 31 -21 65q-37 10 -76 10q-42 0 -70 -15.5t-28 -48.5q0 -29 21.5 -44t56.5 -15q66 0 117 48zM584 727l-113 -164h-86l81 164h118z" />
    <glyph glyph-name="Oslashacute" unicode="&#x1fe;" horiz-adv-x="820" 
d="M164 362q0 -93 53 -162l326 380q-59 39 -133 39q-105 0 -175.5 -74t-70.5 -183zM37 362q0 159 107 266t266 107q118 0 212 -63l61 71l63 -53l-61 -71q98 -106 98 -257q0 -159 -107 -266t-266 -107q-118 0 -212 63l-61 -71l-63 53l61 71q-98 106 -98 257zM656 362
q0 93 -53 162l-326 -380q59 -39 133 -39q105 0 175.5 74t70.5 183zM540 959l-113 -164h-86l81 164h118z" />
    <glyph glyph-name="oslashacute" unicode="&#x1ff;" horiz-adv-x="612" 
d="M160 246q0 -50 25 -87l193 219q-32 19 -72 19q-63 0 -104.5 -43.5t-41.5 -107.5zM39 246q0 109 76.5 183t190.5 74q84 0 146 -40l48 55l51 -44l-46 -53q68 -73 68 -175q0 -109 -76.5 -183t-190.5 -74q-84 0 -146 40l-48 -55l-51 44l46 53q-68 73 -68 175zM452 246
q0 50 -25 87l-193 -219q32 -19 72 -19q63 0 104.5 43.5t41.5 107.5zM436 727l-113 -164h-86l81 164h118z" />
    <glyph glyph-name="Scommaaccent" unicode="&#x218;" horiz-adv-x="569" 
d="M63 42v133q51 -35 111.5 -53.5t109.5 -18.5q57 0 90.5 24.5t33.5 72.5q0 17 -3.5 30t-14.5 24t-18.5 17.5t-28 14.5t-29.5 11t-38 11t-38 11q-44 14 -75.5 28.5t-61 38t-44.5 58t-15 80.5q0 98 66.5 154.5t177.5 56.5q124 0 215 -54v-128q-104 68 -216 68
q-53 0 -84.5 -22t-31.5 -66q0 -16 4 -28.5t14 -22.5t18.5 -16.5t26.5 -13.5t29 -11t35 -10.5t36 -10.5q46 -14 78 -29t63 -39.5t46.5 -60.5t15.5 -84q0 -101 -69 -159.5t-183 -58.5q-123 0 -220 53zM254 -54h110l-78 -218h-84z" />
    <glyph glyph-name="scommaaccent" unicode="&#x219;" horiz-adv-x="503" 
d="M61 27v115q90 -54 189 -54q90 0 90 52q0 14 -6 24t-22 16t-28 8.5t-39.5 7t-42.5 7.5q-78 17 -118.5 49t-40.5 94q1 75 59 116t150 41q102 0 182 -39v-111q-87 51 -183 51q-85 0 -85 -48q0 -14 6 -23t21 -14.5t27.5 -8.5t39 -7.5t41.5 -7.5q79 -16 120.5 -48t41.5 -97
q-1 -77 -60.5 -119t-154.5 -42q-105 0 -187 38zM221 -54h110l-78 -218h-84z" />
    <glyph glyph-name="uni021A" unicode="&#x21a;" horiz-adv-x="639" 
d="M255 0v611h-237v113h603v-113h-239v-611h-127zM289 -54h110l-78 -218h-84z" />
    <glyph glyph-name="uni021B" unicode="&#x21b;" horiz-adv-x="400" 
d="M149 37q-40 43 -40 141v211h-86v103h86v131l121 21v-152h139v-103h-139v-194q0 -48 13.5 -74.5t51.5 -26.5q36 0 74 21v-103q-39 -23 -100 -23q-77 0 -120 48zM202 -54h110l-78 -218h-84z" />
    <glyph glyph-name="dotlessj" unicode="&#x237;" horiz-adv-x="265" 
d="M73 -40v532h121v-525q0 -106 -39 -148q-46 -50 -138 -50q-33 0 -62 6v105q29 -6 54 -6q38 0 51 21t13 65z" />
    <glyph glyph-name="circumflex" unicode="&#x2c6;" 
d="M90 563l115 164h108l115 -164h-88l-81 98l-81 -98h-88z" />
    <glyph glyph-name="caron" unicode="&#x2c7;" 
d="M428 727l-115 -164h-108l-115 164h88l81 -98l81 98h88z" />
    <glyph glyph-name="breve" unicode="&#x2d8;" 
d="M259 568q-71 0 -110 42.5t-41 113.5h71q8 -90 80 -90t80 90h71q-2 -71 -41 -113.5t-110 -42.5z" />
    <glyph glyph-name="dotaccent" unicode="&#x2d9;" 
d="M193 647q0 27 19.5 46.5t46.5 19.5t46.5 -19.5t19.5 -46.5t-19.5 -46.5t-46.5 -19.5t-46.5 19.5t-19.5 46.5z" />
    <glyph glyph-name="ring" unicode="&#x2da;" 
d="M198 665q0 -26 16.5 -44t44.5 -18t44.5 18t16.5 44t-16.5 44t-44.5 18t-44.5 -18t-16.5 -44zM383 665q0 -51 -35.5 -85t-88.5 -34t-88.5 34t-35.5 85t35.5 85t88.5 34t88.5 -34t35.5 -85z" />
    <glyph glyph-name="ogonek" unicode="&#x2db;" 
d="M174 -128q0 39 26 79.5t76 72.5l90 -16q-93 -59 -93 -117q0 -21 12.5 -33t35.5 -12q19 0 45 7v-74q-34 -10 -68 -10q-56 0 -90 28.5t-34 74.5z" />
    <glyph glyph-name="tilde" unicode="&#x2dc;" 
d="M251 603q-48 23 -68 23q-40 0 -83 -47l-2 1v92q32 42 85 42q34 0 84 -24q48 -23 68 -23q40 0 83 47l2 -1v-92q-32 -42 -85 -42q-34 0 -84 24z" />
    <glyph glyph-name="hungarumlaut" unicode="&#x2dd;" 
d="M269 563l78 164h95l-100 -164h-73zM118 563l78 164h95l-100 -164h-73z" />
    <glyph glyph-name="uni0394" unicode="&#x394;" horiz-adv-x="710" 
d="M31 0v80l261 644h127l261 -644v-80h-649zM537 113l-108 274q-43 110 -74 195h-2q-31 -85 -74 -195l-108 -274h366z" />
    <glyph glyph-name="uni03A9" unicode="&#x3a9;" horiz-adv-x="764" 
d="M382 620q-101 0 -157.5 -65t-56.5 -168q0 -85 40.5 -163.5t110.5 -139.5v-84h-297v113h139l1 2q-57 57 -89 132.5t-32 155.5q0 142 95 237t246 95t246 -95t95 -237q0 -80 -32 -155.5t-89 -132.5l1 -2h139v-113h-297v84q70 61 110.5 139.5t40.5 163.5q0 103 -56.5 168
t-157.5 65z" />
    <glyph glyph-name="uni03BC" unicode="&#x3bc;" horiz-adv-x="599" 
d="M72 492h121v-282q0 -62 22 -87q23 -27 65 -27q71 0 128 64v332h121v-492h-120v54l-2 1q-71 -66 -156 -66q-36 0 -64 13l-2 -1l13 -221h-126v712z" />
    <glyph glyph-name="pi" unicode="&#x3c0;" horiz-adv-x="654" 
d="M114 0q32 158 34 382q-64 -9 -122 -40v103q76 47 208 47h408l-18 -103h-86v-389h-121v389h-148q-2 -223 -33 -389h-122z" />
    <glyph glyph-name="Wgrave" unicode="&#x1e80;" horiz-adv-x="1031" 
d="M231 0l-223 724h135l106 -352q29 -96 55 -191h2q18 66 57 192l109 351h93l109 -352q36 -115 57 -191h2q33 119 55 192l106 351h129l-224 -724h-135l-96 310q-36 118 -52 174h-2q-22 -76 -51 -172l-97 -312h-135zM501 795l-113 164h118l81 -164h-86z" />
    <glyph glyph-name="wgrave" unicode="&#x1e81;" horiz-adv-x="825" 
d="M186 0l-169 492h128l62 -188q23 -71 46 -147h2q25 77 50 147l66 188h88l67 -188q32 -91 50 -147h2q17 57 46 147l62 188h122l-169 -492h-119l-61 171q-23 64 -46 137h-2q-22 -70 -46 -137l-60 -171h-119zM400 563l-113 164h118l81 -164h-86z" />
    <glyph glyph-name="Wacute" unicode="&#x1e82;" horiz-adv-x="1031" 
d="M231 0l-223 724h135l106 -352q29 -96 55 -191h2q18 66 57 192l109 351h93l109 -352q36 -115 57 -191h2q33 119 55 192l106 351h129l-224 -724h-135l-96 310q-36 118 -52 174h-2q-22 -76 -51 -172l-97 -312h-135zM647 959l-113 -164h-86l81 164h118z" />
    <glyph glyph-name="wacute" unicode="&#x1e83;" horiz-adv-x="825" 
d="M186 0l-169 492h128l62 -188q23 -71 46 -147h2q25 77 50 147l66 188h88l67 -188q32 -91 50 -147h2q17 57 46 147l62 188h122l-169 -492h-119l-61 171q-23 64 -46 137h-2q-22 -70 -46 -137l-60 -171h-119zM546 727l-113 -164h-86l81 164h118z" />
    <glyph glyph-name="Wdieresis" unicode="&#x1e84;" horiz-adv-x="1031" 
d="M231 0l-223 724h135l106 -352q29 -96 55 -191h2q18 66 57 192l109 351h93l109 -352q36 -115 57 -191h2q33 119 55 192l106 351h129l-224 -724h-135l-96 310q-36 118 -52 174h-2q-22 -76 -51 -172l-97 -312h-135zM556 879q0 27 19.5 46.5t46.5 19.5t46.5 -19.5t19.5 -46.5
t-19.5 -46.5t-46.5 -19.5t-46.5 19.5t-19.5 46.5zM346 879q0 27 19.5 46.5t46.5 19.5t46.5 -19.5t19.5 -46.5t-19.5 -46.5t-46.5 -19.5t-46.5 19.5t-19.5 46.5z" />
    <glyph glyph-name="wdieresis" unicode="&#x1e85;" horiz-adv-x="825" 
d="M186 0l-169 492h128l62 -188q23 -71 46 -147h2q25 77 50 147l66 188h88l67 -188q32 -91 50 -147h2q17 57 46 147l62 188h122l-169 -492h-119l-61 171q-23 64 -46 137h-2q-22 -70 -46 -137l-60 -171h-119zM455 647q0 27 19.5 46.5t46.5 19.5t46.5 -19.5t19.5 -46.5
t-19.5 -46.5t-46.5 -19.5t-46.5 19.5t-19.5 46.5zM245 647q0 27 19.5 46.5t46.5 19.5t46.5 -19.5t19.5 -46.5t-19.5 -46.5t-46.5 -19.5t-46.5 19.5t-19.5 46.5z" />
    <glyph glyph-name="Ygrave" unicode="&#x1ef2;" horiz-adv-x="672" 
d="M274 0v327l-280 397h148l105 -153q56 -82 91 -136h2q43 66 92 138l103 151h143l-277 -396v-328h-127zM323 795l-113 164h118l81 -164h-86z" />
    <glyph glyph-name="ygrave" unicode="&#x1ef3;" horiz-adv-x="553" 
d="M212 -220h-126l131 274l-203 438h131l67 -152q43 -98 66 -155h2q21 51 72 165l64 142h123zM263 563l-113 164h118l81 -164h-86z" />
    <glyph glyph-name="endash" unicode="&#x2013;" horiz-adv-x="493" 
d="M50 232v91h393v-91h-393z" />
    <glyph glyph-name="emdash" unicode="&#x2014;" horiz-adv-x="786" 
d="M35 239v77h716v-77h-716z" />
    <glyph glyph-name="quoteleft" unicode="&#x2018;" horiz-adv-x="267" 
d="M48 467l88 275h78l-57 -275h-109z" />
    <glyph glyph-name="quoteright" unicode="&#x2019;" horiz-adv-x="267" 
d="M53 467l57 275h109l-88 -275h-78z" />
    <glyph glyph-name="quotesinglbase" unicode="&#x201a;" horiz-adv-x="267" 
d="M53 -111l57 275h109l-88 -275h-78z" />
    <glyph glyph-name="quotedblleft" unicode="&#x201c;" horiz-adv-x="442" 
d="M48 467l88 275h78l-57 -275h-109zM223 467l88 275h78l-57 -275h-109z" />
    <glyph glyph-name="quotedblright" unicode="&#x201d;" horiz-adv-x="442" 
d="M53 467l57 275h109l-88 -275h-78zM228 467l57 275h109l-88 -275h-78z" />
    <glyph glyph-name="quotedblbase" unicode="&#x201e;" horiz-adv-x="442" 
d="M53 -111l57 275h109l-88 -275h-78zM228 -111l57 275h109l-88 -275h-78z" />
    <glyph glyph-name="dagger" unicode="&#x2020;" horiz-adv-x="609" 
d="M249 -220v615h-188v103h188v226h111v-226h188v-103h-188v-615h-111z" />
    <glyph glyph-name="daggerdbl" unicode="&#x2021;" horiz-adv-x="609" 
d="M61 7v103h188v285h-188v103h188v226h111v-226h188v-103h-188v-285h188v-103h-188v-227h-111v227h-188z" />
    <glyph glyph-name="bullet" unicode="&#x2022;" horiz-adv-x="380" 
d="M72 297q0 49 34.5 84t83.5 35q50 0 84.5 -35t34.5 -84t-35 -83.5t-84 -34.5t-83.5 34.5t-34.5 83.5z" />
    <glyph glyph-name="ellipsis" unicode="&#x2026;" horiz-adv-x="836" 
d="M72 67q0 32 23 55t55 23t55 -23t23 -55t-23 -55t-55 -23t-55 23t-23 55zM340 67q0 32 23 55t55 23t55 -23t23 -55t-23 -55t-55 -23t-55 23t-23 55zM608 67q0 32 23 55t55 23t55 -23t23 -55t-23 -55t-55 -23t-55 23t-23 55z" />
    <glyph glyph-name="perthousand" unicode="&#x2030;" horiz-adv-x="1349" 
d="M187 0l472 724h86l-472 -724h-86zM133 548q0 -46 26 -78t67 -32t67 32t26 78t-26 78t-67 32t-67 -32t-26 -78zM49 548q0 81 49 134t128 53t128 -53t49 -134t-49 -134t-128 -53t-128 53t-49 134zM799 176q0 46 -26 78t-67 32t-67 -32t-26 -78t26 -78t67 -32t67 32t26 78z
M883 176q0 -81 -49 -134t-128 -53t-128 53t-49 134t49 134t128 53t128 -53t49 -134zM1216 176q0 46 -26 78t-67 32t-67 -32t-26 -78t26 -78t67 -32t67 32t26 78zM1300 176q0 -81 -49 -134t-128 -53t-128 53t-49 134t49 134t128 53t128 -53t49 -134z" />
    <glyph glyph-name="guilsinglleft" unicode="&#x2039;" horiz-adv-x="345" 
d="M199 27l-165 219l165 219h100l-164 -219l164 -219h-100z" />
    <glyph glyph-name="guilsinglright" unicode="&#x203a;" horiz-adv-x="345" 
d="M46 27l164 219l-164 219h100l165 -219l-165 -219h-100z" />
    <glyph glyph-name="fraction" unicode="&#x2044;" horiz-adv-x="379" 
d="M4 -13h-105l476 737h105z" />
    <glyph glyph-name="four.superior" unicode="&#x2074;" horiz-adv-x="416" 
d="M229 422v93h-225l-1 2l232 339h88v-268h67v-73h-67v-93h-94zM185 663l-50 -73l1 -2h93v46q0 59 2 97l-2 1q-18 -31 -44 -69z" />
    <glyph glyph-name="Euro" unicode="&#x20ac;" horiz-adv-x="605" 
d="M16 238v88h69q-1 12 -1 37q0 20 2 40h-70v88h86q33 113 122.5 178.5t220.5 65.5q61 0 117 -18v-119q-60 22 -117 22q-74 0 -127.5 -34t-80.5 -95h181v-88h-204q-2 -20 -2 -39q0 -22 2 -38h204v-88h-182q27 -62 81.5 -97t130.5 -35q66 0 125 25v-120q-56 -22 -134 -22
q-130 0 -218 67.5t-120 181.5h-85z" />
    <glyph glyph-name="litre" unicode="&#x2113;" horiz-adv-x="419" 
d="M54 144l-33 57q56 52 80 77v258q0 102 40.5 158t102.5 56q53 0 84.5 -41.5t31.5 -113.5q0 -157 -159 -328v-66q0 -75 14.5 -105.5t46.5 -30.5q40 0 88 55l37 -48q-60 -86 -148 -86q-69 0 -103 46t-34 123v35q-43 -43 -48 -46zM201 363q85 115 85 232q0 81 -38 81
q-47 0 -47 -132v-181z" />
    <glyph glyph-name="trademark" unicode="&#x2122;" horiz-adv-x="640" 
d="M109 434v231h-85v59h235v-59h-85v-231h-65zM492 563l-45 -62l-45 62q-25 36 -38 57l-2 -1q2 -32 2 -64v-121h-63v290h61l85 -118l85 118h62v-290h-64v121q0 32 2 64l-2 1q-13 -21 -38 -57z" />
    <glyph glyph-name="Omega" unicode="&#x2126;" horiz-adv-x="764" 
d="M382 620q-101 0 -157.5 -65t-56.5 -168q0 -85 40.5 -163.5t110.5 -139.5v-84h-297v113h139l1 2q-57 57 -89 132.5t-32 155.5q0 142 95 237t246 95t246 -95t95 -237q0 -80 -32 -155.5t-89 -132.5l1 -2h139v-113h-297v84q70 61 110.5 139.5t40.5 163.5q0 103 -56.5 168
t-157.5 65z" />
    <glyph glyph-name="estimated" unicode="&#x212e;" horiz-adv-x="746" 
d="M171 137q0 -41 35.5 -71t81 -42.5t91.5 -12.5q67 0 131.5 30.5t106.5 87.5l33 -7q-102 -139 -274 -139q-146 0 -241.5 93t-95.5 229t95.5 229.5t240.5 93.5q85 0 157.5 -32.5t122 -101.5t53.5 -162q1 -23 -4 -27.5t-28 -4.5h-473q-25 0 -28.5 -4t-3.5 -28v-131zM203 328
h342q25 0 28.5 4t3.5 28v125q0 48 -59.5 81.5t-143.5 33.5t-143.5 -33.5t-59.5 -81.5v-125q0 -24 3.5 -28t28.5 -4z" />
    <glyph glyph-name="partialdiff" unicode="&#x2202;" horiz-adv-x="573" 
d="M26 219q0 102 65.5 173t170.5 71q83 0 154 -50l1 1q-3 48 -11 89t-25 82.5t-49.5 65.5t-77.5 24q-68 0 -133 -40v105q71 41 156 41q70 0 122 -31t82 -87t44.5 -124.5t14.5 -151.5q0 -183 -70 -290.5t-208 -107.5q-110 0 -173 65.5t-63 164.5zM148 221q0 -56 32.5 -91
t86.5 -35q129 0 148 207q-60 58 -137 58q-62 0 -96 -41t-34 -98z" />
    <glyph glyph-name="Delta" unicode="&#x2206;" horiz-adv-x="710" 
d="M31 0v80l261 644h127l261 -644v-80h-649zM537 113l-108 274q-43 110 -74 195h-2q-31 -85 -74 -195l-108 -274h366z" />
    <glyph glyph-name="product" unicode="&#x220f;" horiz-adv-x="787" 
d="M136 -116v727h-109v113h733v-113h-109v-727h-127v727h-261v-727h-127z" />
    <glyph glyph-name="summation" unicode="&#x2211;" horiz-adv-x="618" 
d="M50 -33l216 361l-207 313v83h491v-113h-333l185 -279l-201 -336h365v-112h-516v83z" />
    <glyph glyph-name="minus" unicode="&#x2212;" horiz-adv-x="594" 
d="M540 317h-486v91h486v-91z" />
    <glyph glyph-name="radical" unicode="&#x221a;" horiz-adv-x="676" 
d="M351 76h2q25 79 56 166l223 636h97l-352 -994h-46l-206 508l-97 -39l-31 76l185 75l104 -260q39 -98 65 -168z" />
    <glyph glyph-name="infinity" unicode="&#x221e;" horiz-adv-x="755" 
d="M210 154q40 0 67 25t52 70q-24 49 -51 75.5t-68 26.5t-64 -27.5t-23 -70.5q0 -44 23 -71.5t64 -27.5zM375 173h-2q-65 -109 -166 -109q-78 0 -127 54.5t-49 134.5q0 79 47.5 133.5t128.5 54.5q101 0 172 -109h2q65 109 166 109q78 0 127 -54.5t49 -134.5
q0 -79 -47.5 -133.5t-128.5 -54.5q-101 0 -172 109zM544 351q-40 0 -67 -25t-52 -70q24 -49 51 -75.5t68 -26.5t64 27.5t23 70.5q0 44 -23 71.5t-64 27.5z" />
    <glyph glyph-name="integral" unicode="&#x222b;" horiz-adv-x="350" 
d="M155 92l-78 422q-14 78 -14 134q0 94 53 136t140 42q36 0 62 -6v-104q-33 5 -56 5q-40 0 -59.5 -19t-19.5 -63q0 -30 10 -88l78 -422q14 -78 14 -134q0 -94 -53 -136t-140 -42q-36 0 -62 6v104q33 -5 56 -5q40 0 59.5 19t19.5 63q0 30 -10 88z" />
    <glyph glyph-name="approxequal" unicode="&#x2248;" horiz-adv-x="594" 
d="M185 533q42 0 116.5 -27t109.5 -27q60 0 95 57l25 -71q-19 -34 -51.5 -55t-70.5 -21q-42 0 -116.5 27t-109.5 27q-60 0 -95 -57l-25 71q19 34 51.5 55t70.5 21zM185 335q42 0 116.5 -27t109.5 -27q60 0 95 57l25 -71q-19 -34 -51.5 -55t-70.5 -21q-42 0 -116.5 27
t-109.5 27q-60 0 -95 -57l-25 71q19 34 51.5 55t70.5 21z" />
    <glyph glyph-name="notequal" unicode="&#x2260;" horiz-adv-x="594" 
d="M54 423v91h322l103 135l47 -37l-75 -98h89v-91h-159l-93 -121h252v-91h-322l-103 -135l-47 37l75 98h-89v91h159l93 121h-252z" />
    <glyph glyph-name="lessequal" unicode="&#x2264;" horiz-adv-x="701" 
d="M86 374v66l530 214v-97l-369 -149v-2l369 -149v-97zM86 0v80h530v-80h-530z" />
    <glyph glyph-name="greaterequal" unicode="&#x2265;" horiz-adv-x="701" 
d="M616 440v-66l-530 -214v97l369 149v2l-369 149v97zM616 80v-80h-530v80h530z" />
    <glyph glyph-name="lozenge" unicode="&#x25ca;" horiz-adv-x="546" 
d="M234 -19l-185 379l185 378h78l185 -378l-185 -379h-78zM272 87h2l131 273l-131 272h-2l-131 -272z" />
    <glyph glyph-name="commaaccent" unicode="&#xf6c3;" 
d="M229 -54h110l-78 -218h-84z" />
    <glyph glyph-name="apple" unicode="&#xf8ff;" horiz-adv-x="1000" 
d="M481 674q-2 12 -2 27q0 63 51 120t120 66l15 1q2 -14 2 -25q0 -74 -56 -132q-55 -57 -130 -57zM206 96q-48 64 -77 148t-29 169q0 124 67 197q68 74 177 74q39 0 94 -21q42 -16 56 -16q12 0 79 23q42 14 88 14q116 0 187 -87q-101 -74 -101 -176q0 -118 125 -183
q-35 -99 -98 -171t-116 -72q-21 0 -82 22q-46 17 -77 17q-30 0 -65 -13q-68 -26 -87 -26q-66 0 -141 101z" />
    <glyph glyph-name="ff" unicode="&#xfb00;" horiz-adv-x="690" 
d="M429 0v389h-211v-389h-121v389h-74v103h74v84q0 109 48 156q44 43 127 43q46 0 79 -12v-102q-34 9 -68 9q-38 0 -51.5 -21.5t-13.5 -61.5v-95h211v84q0 109 48 156q44 43 127 43q46 0 79 -12v-102q-34 9 -68 9q-38 0 -51.5 -21.5t-13.5 -61.5v-95h120v-103h-120v-389
h-121z" />
    <glyph glyph-name="commaaccent.alt" 
d="M178 556l78 218h84l-52 -218h-110z" />
    <glyph glyph-name="hyphen.cap" horiz-adv-x="346" 
d="M52 310v102h242v-102h-242z" />
    <glyph glyph-name="exclamdown.cap" horiz-adv-x="300" 
d="M189 492l31 -492h-140l31 492h78zM225 660q0 -31 -22 -53t-53 -22t-53 22t-22 53t22 53t53 22t53 -22t22 -53z" />
    <glyph glyph-name="questiondown.cap" horiz-adv-x="491" 
d="M362 518l23 -179q-98 0 -155 -30t-57 -92q0 -48 33 -79.5t85 -31.5q68 0 135 46l15 -117q-65 -45 -158 -45q-102 0 -170 63t-68 155q0 87 61 147.5t146 70.5l-2 92h112zM369 661q0 -31 -22 -53t-53 -22t-53 22t-22 53t22 53t53 22t53 -22t22 -53z" />
    <glyph glyph-name="guilsinglleft.cap" horiz-adv-x="345" 
d="M199 143l-165 219l165 219h100l-164 -219l164 -219h-100z" />
    <glyph glyph-name="guilsinglright.cap" horiz-adv-x="345" 
d="M46 143l164 219l-164 219h100l165 -219l-165 -219h-100z" />
    <glyph glyph-name="guillemotleft.cap" horiz-adv-x="563" 
d="M199 143l-165 219l165 219h100l-164 -219l164 -219h-100zM417 143l-165 219l165 219h100l-164 -219l164 -219h-100z" />
    <glyph glyph-name="guillemotright.cap" horiz-adv-x="563" 
d="M46 143l164 219l-164 219h100l165 -219l-165 -219h-100zM264 143l164 219l-164 219h100l165 -219l-165 -219h-100z" />
    <glyph glyph-name="endash.cap" horiz-adv-x="493" 
d="M50 316v91h393v-91h-393z" />
    <glyph glyph-name="emdash.cap" horiz-adv-x="786" 
d="M35 323v77h716v-77h-716z" />
    <glyph glyph-name="parenleft.cap" horiz-adv-x="362" 
d="M70 362q0 151 40.5 273t105.5 205h115q-67 -88 -108.5 -211t-41.5 -267t41.5 -267t108.5 -211h-115q-65 83 -105.5 205t-40.5 273z" />
    <glyph glyph-name="parenright.cap" horiz-adv-x="362" 
d="M292 362q0 -151 -40.5 -273t-105.5 -205h-115q67 88 108.5 211t41.5 267t-41.5 267t-108.5 211h115q65 -83 105.5 -205t40.5 -273z" />
    <glyph glyph-name="bracketleft.cap" horiz-adv-x="361" 
d="M197 -26h120v-90h-231v956h231v-90h-120v-776z" />
    <glyph glyph-name="bracketright.cap" horiz-adv-x="361" 
d="M44 -26h120v776h-120v90h231v-956h-231v90z" />
    <glyph glyph-name="braceleft.cap" horiz-adv-x="378" 
d="M26 317v90h27q44 0 58.5 17.5t14.5 60.5v206q0 76 39.5 118t120.5 42q39 0 64 -5v-89q-16 4 -43 4q-39 0 -54.5 -19t-15.5 -65v-187q0 -55 -14 -85t-51 -42v-2q37 -12 51 -42t14 -85v-187q0 -46 15.5 -65t54.5 -19q27 0 43 4v-89q-25 -5 -64 -5q-81 0 -120.5 42
t-39.5 118v206q0 43 -14.5 60.5t-58.5 17.5h-27z" />
    <glyph glyph-name="braceright.cap" horiz-adv-x="378" 
d="M352 407v-90h-27q-44 0 -58.5 -17.5t-14.5 -60.5v-206q0 -76 -39.5 -118t-120.5 -42q-39 0 -64 5v89q16 -4 43 -4q39 0 54.5 19t15.5 65v187q0 55 14 85t51 42v2q-37 12 -51 42t-14 85v187q0 46 -15.5 65t-54.5 19q-27 0 -43 -4v89q25 5 64 5q81 0 120.5 -42t39.5 -118
v-206q0 -43 14.5 -60.5t58.5 -17.5h27z" />
    <glyph glyph-name="i.TRK" horiz-adv-x="263" 
d="M71 0v492h121v-492h-121z" />
    <glyph glyph-name="tilde.cap" 
d="M251 835q-48 23 -68 23q-40 0 -83 -47l-2 1v92q32 42 85 42q34 0 84 -24q48 -23 68 -23q40 0 83 47l2 -1v-92q-32 -42 -85 -42q-34 0 -84 24z" />
    <glyph glyph-name="dieresis.cap" 
d="M298 879q0 27 19.5 46.5t46.5 19.5t46.5 -19.5t19.5 -46.5t-19.5 -46.5t-46.5 -19.5t-46.5 19.5t-19.5 46.5zM88 879q0 27 19.5 46.5t46.5 19.5t46.5 -19.5t19.5 -46.5t-19.5 -46.5t-46.5 -19.5t-46.5 19.5t-19.5 46.5z" />
    <glyph glyph-name="macron.cap" 
d="M114 835v84h290v-84h-290z" />
    <glyph glyph-name="breve.cap" 
d="M259 800q-71 0 -110 42.5t-41 113.5h71q8 -90 80 -90t80 90h71q-2 -71 -41 -113.5t-110 -42.5z" />
    <glyph glyph-name="ring.cap" 
d="M198 897q0 -26 16.5 -44t44.5 -18t44.5 18t16.5 44t-16.5 44t-44.5 18t-44.5 -18t-16.5 -44zM383 897q0 -51 -35.5 -85t-88.5 -34t-88.5 34t-35.5 85t35.5 85t88.5 34t88.5 -34t35.5 -85z" />
    <glyph glyph-name="hungarumlaut.cap" 
d="M269 795l78 164h95l-100 -164h-73zM118 795l78 164h95l-100 -164h-73z" />
    <glyph glyph-name="dotaccent.cap" 
d="M193 879q0 27 19.5 46.5t46.5 19.5t46.5 -19.5t19.5 -46.5t-19.5 -46.5t-46.5 -19.5t-46.5 19.5t-19.5 46.5z" />
    <glyph glyph-name="grave.cap" 
d="M243 795l-113 164h118l81 -164h-86z" />
    <glyph glyph-name="acute.cap" 
d="M389 959l-113 -164h-86l81 164h118z" />
    <glyph glyph-name="circumflex.cap" 
d="M90 795l115 164h108l115 -164h-88l-81 98l-81 -98h-88z" />
    <glyph glyph-name="caron.cap" 
d="M428 959l-115 -164h-108l-115 164h88l81 -98l81 98h88z" />
    <glyph glyph-name="a.alt" horiz-adv-x="602" 
d="M42 238q0 116 74 190.5t188 74.5q66 0 126 -30l101 18v-491h-119v28l-2 1q-53 -40 -131 -40q-100 0 -168.5 69t-68.5 180zM164 245q0 -67 38 -110.5t103 -43.5q58 0 105 34v249q-50 26 -101 26q-67 0 -106 -43.5t-39 -111.5z" />
    <glyph glyph-name="agrave.alt" horiz-adv-x="602" 
d="M42 238q0 116 74 190.5t188 74.5q66 0 126 -30l101 18v-491h-119v28l-2 1q-53 -40 -131 -40q-100 0 -168.5 69t-68.5 180zM164 245q0 -67 38 -110.5t103 -43.5q58 0 105 34v249q-50 26 -101 26q-67 0 -106 -43.5t-39 -111.5zM289 563l-113 164h118l81 -164h-86z" />
    <glyph glyph-name="aacute.alt" horiz-adv-x="602" 
d="M435 727l-113 -164h-86l81 164h118zM42 238q0 116 74 190.5t188 74.5q66 0 126 -30l101 18v-491h-119v28l-2 1q-53 -40 -131 -40q-100 0 -168.5 69t-68.5 180zM164 245q0 -67 38 -110.5t103 -43.5q58 0 105 34v249q-50 26 -101 26q-67 0 -106 -43.5t-39 -111.5z" />
    <glyph glyph-name="acircumflex.alt" horiz-adv-x="602" 
d="M136 563l115 164h108l115 -164h-88l-81 98l-81 -98h-88zM42 238q0 116 74 190.5t188 74.5q66 0 126 -30l101 18v-491h-119v28l-2 1q-53 -40 -131 -40q-100 0 -168.5 69t-68.5 180zM164 245q0 -67 38 -110.5t103 -43.5q58 0 105 34v249q-50 26 -101 26q-67 0 -106 -43.5
t-39 -111.5z" />
    <glyph glyph-name="atilde.alt" horiz-adv-x="602" 
d="M42 238q0 116 74 190.5t188 74.5q66 0 126 -30l101 18v-491h-119v28l-2 1q-53 -40 -131 -40q-100 0 -168.5 69t-68.5 180zM164 245q0 -67 38 -110.5t103 -43.5q58 0 105 34v249q-50 26 -101 26q-67 0 -106 -43.5t-39 -111.5zM297 603q-48 23 -68 23q-40 0 -83 -47l-2 1
v92q32 42 85 42q34 0 84 -24q48 -23 68 -23q40 0 83 47l2 -1v-92q-32 -42 -85 -42q-34 0 -84 24z" />
    <glyph glyph-name="adieresis.alt" horiz-adv-x="602" 
d="M344 647q0 27 19.5 46.5t46.5 19.5t46.5 -19.5t19.5 -46.5t-19.5 -46.5t-46.5 -19.5t-46.5 19.5t-19.5 46.5zM134 647q0 27 19.5 46.5t46.5 19.5t46.5 -19.5t19.5 -46.5t-19.5 -46.5t-46.5 -19.5t-46.5 19.5t-19.5 46.5zM42 238q0 116 74 190.5t188 74.5q66 0 126 -30
l101 18v-491h-119v28l-2 1q-53 -40 -131 -40q-100 0 -168.5 69t-68.5 180zM164 245q0 -67 38 -110.5t103 -43.5q58 0 105 34v249q-50 26 -101 26q-67 0 -106 -43.5t-39 -111.5z" />
    <glyph glyph-name="amacron.alt" horiz-adv-x="602" 
d="M42 238q0 116 74 190.5t188 74.5q66 0 126 -30l101 18v-491h-119v28l-2 1q-53 -40 -131 -40q-100 0 -168.5 69t-68.5 180zM164 245q0 -67 38 -110.5t103 -43.5q58 0 105 34v249q-50 26 -101 26q-67 0 -106 -43.5t-39 -111.5zM160 603v84h290v-84h-290z" />
    <glyph glyph-name="abreve.alt" horiz-adv-x="602" 
d="M42 238q0 116 74 190.5t188 74.5q66 0 126 -30l101 18v-491h-119v28l-2 1q-53 -40 -131 -40q-100 0 -168.5 69t-68.5 180zM164 245q0 -67 38 -110.5t103 -43.5q58 0 105 34v249q-50 26 -101 26q-67 0 -106 -43.5t-39 -111.5zM305 568q-71 0 -110 42.5t-41 113.5h71
q8 -90 80 -90t80 90h71q-2 -71 -41 -113.5t-110 -42.5z" />
    <glyph glyph-name="aring.alt" horiz-adv-x="602" 
d="M244 665q0 -26 16.5 -44t44.5 -18t44.5 18t16.5 44t-16.5 44t-44.5 18t-44.5 -18t-16.5 -44zM429 665q0 -51 -35.5 -85t-88.5 -34t-88.5 34t-35.5 85t35.5 85t88.5 34t88.5 -34t35.5 -85zM42 238q0 116 74 190.5t188 74.5q66 0 126 -30l101 18v-491h-119v28l-2 1
q-53 -40 -131 -40q-100 0 -168.5 69t-68.5 180zM164 245q0 -67 38 -110.5t103 -43.5q58 0 105 34v249q-50 26 -101 26q-67 0 -106 -43.5t-39 -111.5z" />
    <glyph glyph-name="ae.alt" horiz-adv-x="929" 
d="M42 238q0 116 73.5 190.5t185.5 74.5q60 0 117 -26l104 19v-45l2 -1q50 53 136 53q93 0 158.5 -64t65.5 -177q0 -31 -3 -49h-352q12 -60 55 -92t106 -32q88 0 167 57v-111q-72 -46 -179 -46q-130 0 -207 82q-80 -82 -192 -82q-101 0 -169 69t-68 180zM302 91q75 0 123 51
q-19 49 -19 103v129q-48 26 -100 26q-65 0 -103.5 -43.5t-38.5 -110.5t38 -111t100 -44zM655 405q-45 0 -80 -27.5t-46 -80.5h241q-5 47 -36 77.5t-79 30.5z" />
    <glyph glyph-name="aeacute.alt" horiz-adv-x="929" 
d="M624 727l-113 -164h-86l81 164h118zM42 238q0 116 73.5 190.5t185.5 74.5q60 0 117 -26l104 19v-45l2 -1q50 53 136 53q93 0 158.5 -64t65.5 -177q0 -31 -3 -49h-352q12 -60 55 -92t106 -32q88 0 167 57v-111q-72 -46 -179 -46q-130 0 -207 82q-80 -82 -192 -82
q-101 0 -169 69t-68 180zM302 91q75 0 123 51q-19 49 -19 103v129q-48 26 -100 26q-65 0 -103.5 -43.5t-38.5 -110.5t38 -111t100 -44zM655 405q-45 0 -80 -27.5t-46 -80.5h241q-5 47 -36 77.5t-79 30.5z" />
    <glyph glyph-name="aogonek.alt" horiz-adv-x="602" 
d="M42 238q0 116 74.5 190.5t186.5 74.5q67 0 127 -30l101 18v-491q-86 -49 -86 -108q0 -46 49 -46q19 0 43 6v-73q-27 -10 -65 -10q-58 0 -92.5 28.5t-34.5 76.5q0 70 67 126v28l-2 1q-53 -40 -132 -40q-99 0 -167.5 69t-68.5 180zM164 245q0 -67 38 -110.5t103 -43.5
q58 0 105 34v249q-50 26 -101 26q-67 0 -106 -43.5t-39 -111.5z" />
    <glyph glyph-name="ordfeminine.alt" horiz-adv-x="392" 
d="M28 563q0 75 48.5 123.5t122.5 48.5q45 0 82 -19l71 13v-321h-86v17l-2 1q-38 -25 -83 -25q-64 0 -108.5 45t-44.5 117zM117 568q0 -40 23 -67t62 -27q31 0 62 19v153q-30 15 -60 15q-40 0 -63.5 -26.5t-23.5 -66.5z" />
    <glyph glyph-name="periodcentered.cap" horiz-adv-x="300" 
d="M73 362q0 32 23 55t55 23t55 -23t23 -55t-23 -55t-55 -23t-55 23t-23 55z" />
    <glyph glyph-name="at.cap" horiz-adv-x="801" 
d="M615 170q-79 0 -118 57h-2q-50 -58 -128 -58q-69 0 -113.5 48.5t-44.5 124.5q0 85 54 149t141 64q54 0 100 -32l69 12l-17 -197q-1 -11 -1 -21q0 -40 17.5 -64t51.5 -24q40 0 64.5 34t24.5 101q0 130 -86 222.5t-225 92.5t-226 -92.5t-87 -224.5t86 -224.5t225 -92.5
q122 0 208 73l32 -49q-98 -80 -238 -80q-161 0 -267 107t-106 265q0 160 106 267t266 107t266 -106.5t106 -259.5q0 -92 -41.5 -145.5t-116.5 -53.5zM381 240q58 0 93 48q-2 21 1 60l9 104q-35 33 -80 33q-50 0 -81 -43.5t-31 -98.5q0 -46 23.5 -74.5t65.5 -28.5z" />
    </font>
</defs>
</svg>
