<?xml version="1.0" standalone="no"?>
<!DOCTYPE svg PUBLIC "-//W3C//DTD SVG 1.1//EN" "http://www.w3.org/Graphics/SVG/1.1/DTD/svg11.dtd" >
<svg xmlns="http://www.w3.org/2000/svg" xmlns:xlink="http://www.w3.org/1999/xlink" version="1.1">
<metadata>
Created by FontForge 20170731 at Fri Jan  4 23:26:17 2013
 By Aleksey,,,
Copyright (c) 2012 by Rui Abreu, Portugal. All rights reserved.
</metadata>
<defs>
<font id="AzoSans-Regular" horiz-adv-x="502" >
  <font-face 
    font-family="Azo Sans"
    font-weight="400"
    font-stretch="normal"
    units-per-em="1000"
    panose-1="2 0 0 0 0 0 0 0 0 0"
    ascent="772"
    descent="-228"
    x-height="492"
    cap-height="724"
    bbox="-100 -272 1294 1011"
    underline-thickness="50"
    underline-position="-220"
    unicode-range="U+000D-FB02"
  />
<missing-glyph horiz-adv-x="648" 
d="M152 604l131 131l213 -212l-101 -101l101 -100l-101 -101l101 -100l-132 -132l-212 213l100 100l-100 101l100 100z" />
    <glyph glyph-name="fi" unicode="fi" horiz-adv-x="592" 
d="M104 0v411h-78v81h78v94q0 105 44 148q42 41 115 41q40 0 74 -10v-81q-34 9 -70 9q-43 0 -58 -24.5t-15 -69.5v-107h126v-81h-126v-411h-90zM405 661q0 26 18.5 44.5t44.5 18.5t44.5 -18.5t18.5 -44.5t-18.5 -44.5t-44.5 -18.5t-44.5 18.5t-18.5 44.5zM423 0v492h90v-492
h-90z" />
    <glyph glyph-name="fl" unicode="fl" horiz-adv-x="592" 
d="M104 0v411h-78v81h78v94q0 105 44 148q42 41 115 41q40 0 74 -10v-81q-34 9 -70 9q-43 0 -58 -24.5t-15 -69.5v-107h126v-81h-126v-411h-90zM423 0v764h90v-764h-90z" />
    <glyph glyph-name=".notdef" horiz-adv-x="648" 
d="M152 604l131 131l213 -212l-101 -101l101 -100l-101 -101l101 -100l-132 -132l-212 213l100 100l-100 101l100 100z" />
    <glyph glyph-name=".null" horiz-adv-x="1" 
 />
    <glyph glyph-name=".null" horiz-adv-x="1" 
 />
    <glyph glyph-name="nonmarkingreturn" horiz-adv-x="333" 
 />
    <glyph glyph-name="CR" unicode="&#xd;" horiz-adv-x="349" 
 />
    <glyph glyph-name="space" unicode=" " horiz-adv-x="242" 
 />
    <glyph glyph-name="exclam" unicode="!" horiz-adv-x="306" 
d="M91 52q0 26 18.5 44.5t44.5 18.5t44.5 -18.5t18.5 -44.5t-18.5 -44.5t-44.5 -18.5t-44.5 18.5t-18.5 44.5zM126 222l-24 502h104l-24 -502h-56z" />
    <glyph glyph-name="quotedbl" unicode="&#x22;" horiz-adv-x="352" 
d="M66 473l-15 269h85l-15 -269h-55zM231 473l-15 269h85l-15 -269h-55z" />
    <glyph glyph-name="numbersign" unicode="#" horiz-adv-x="618" 
d="M74 0l64 223h-124l17 61h124l45 156h-124l17 61h124l64 223h64l-64 -223h135l64 223h64l-64 -223h124l-17 -61h-124l-45 -156h124l-17 -61h-124l-64 -223h-64l64 223h-135l-64 -223h-64zM219 284h135l45 156h-135z" />
    <glyph glyph-name="dollar" unicode="$" horiz-adv-x="574" 
d="M82 94v99q91 -63 203 -63q59 0 93.5 23.5t34.5 69.5q0 14 -4 25.5t-9 20t-17 16t-20 12t-26 10t-26.5 7.5t-31 7t-30.5 7q-41 9 -70 20.5t-57 30.5t-42.5 49.5t-14.5 71.5q0 75 48 120t129 54v126h74v-126q88 -6 158 -47v-96q-92 61 -196 61q-55 0 -87.5 -22t-32.5 -65
q0 -13 4 -24t9 -19t16 -15t18.5 -11t24.5 -9l25.5 -7.5t29 -7t29.5 -6.5q43 -10 73 -21.5t59.5 -31t44.5 -51t15 -74.5q0 -79 -52 -126t-138 -55v-123h-74v124q-90 8 -160 46z" />
    <glyph glyph-name="percent" unicode="%" horiz-adv-x="932" 
d="M228 361q-76 0 -125 53.5t-49 133.5t49 133.5t125 53.5t125 -53.5t49 -133.5t-49 -133.5t-125 -53.5zM196 0l471 724h69l-471 -724h-69zM228 423q47 0 78 36t31 89t-31 89t-78 36t-78 -36t-31 -89t31 -89t78 -36zM530 176q0 80 49 133.5t125 53.5t125 -53.5t49 -133.5
t-49 -133.5t-125 -53.5t-125 53.5t-49 133.5zM595 176q0 -53 31 -89t78 -36t78 36t31 89t-31 89t-78 36t-78 -36t-31 -89z" />
    <glyph glyph-name="ampersand" unicode="&#x26;" horiz-adv-x="702" 
d="M545 434h93l-86 -267l164 -165l-1 -2h-114l-86 86q-69 -97 -215 -97q-114 0 -178 59.5t-64 144.5q0 113 125 186l24 14l-22 23q-73 75 -73 150t53 122t132 47q81 0 132.5 -48.5t51.5 -120.5q0 -96 -99 -160l-41 -27l142 -143zM303 71q103 0 146 80l-183 184l-38 -22
q-80 -47 -80 -117q0 -52 41.5 -88.5t113.5 -36.5zM202 565q0 -45 50 -96l31 -32l45 30q63 42 63 97q0 40 -27.5 64t-68.5 24q-42 0 -67.5 -25t-25.5 -62z" />
    <glyph glyph-name="quotesingle" unicode="'" horiz-adv-x="187" 
d="M66 473l-15 269h85l-15 -269h-55z" />
    <glyph glyph-name="parenleft" unicode="(" horiz-adv-x="350" 
d="M73 265q0 151 40 272.5t104 205.5h89q-67 -88 -108.5 -211t-41.5 -267t41.5 -267t108.5 -211h-89q-64 84 -104 205.5t-40 272.5z" />
    <glyph glyph-name="parenright" unicode=")" horiz-adv-x="350" 
d="M44 -213q67 88 108.5 211t41.5 267t-41.5 267t-108.5 211h89q64 -84 104 -205.5t40 -272.5t-40 -272.5t-104 -205.5h-89z" />
    <glyph glyph-name="asterisk" unicode="*" horiz-adv-x="457" 
d="M208 576l-13 152h67l-13 -152h-41zM275 526l-12 40l142 60l21 -66zM182 526l-151 34l21 66l142 -60zM317 353l-80 132l34 24l100 -116zM140 353l-54 40l100 116l34 -24z" />
    <glyph glyph-name="plus" unicode="+" horiz-adv-x="588" 
d="M257 116v210h-204v72h204v210h74v-210h204v-72h-204v-210h-74z" />
    <glyph glyph-name="comma" unicode="," horiz-adv-x="294" 
d="M56 -147l56 283h91l-81 -283h-66z" />
    <glyph glyph-name="hyphen" unicode="-" horiz-adv-x="352" 
d="M57 237v80h238v-80h-238z" />
    <glyph glyph-name="period" unicode="." horiz-adv-x="294" 
d="M82 55q0 27 19.5 46.5t46.5 19.5t46.5 -19.5t19.5 -46.5t-19.5 -46.5t-46.5 -19.5t-46.5 19.5t-19.5 46.5z" />
    <glyph glyph-name="slash" unicode="/" horiz-adv-x="446" 
d="M18 -38l336 800h74l-336 -800h-74z" />
    <glyph glyph-name="zero" unicode="0" horiz-adv-x="618" 
d="M309 -11q-113 0 -178 88q-69 94 -69 285t69 285q65 88 178 88t178 -88q69 -94 69 -285t-69 -285q-65 -88 -178 -88zM309 77q61 0 100 49q52 67 52 236t-52 236q-39 49 -100 49t-100 -49q-52 -67 -52 -236t52 -236q39 -49 100 -49z" />
    <glyph glyph-name="one" unicode="1" horiz-adv-x="509" 
d="M243 0v607l-166 -64v91l261 101v-735h-95z" />
    <glyph glyph-name="two" unicode="2" horiz-adv-x="562" 
d="M24 2l239 287q65 77 93 128.5t28 100.5q0 62 -39 95.5t-104 33.5q-88 0 -162 -54v96q71 46 167 46q101 0 167 -56t66 -156q0 -69 -34 -134t-105 -150l-126 -151l1 -2h290v-86h-480z" />
    <glyph glyph-name="three" unicode="3" horiz-adv-x="555" 
d="M53 56v109q89 -88 198 -88q66 0 107 33t41 90q0 55 -39.5 88t-114.5 33h-68v84h65q67 0 104.5 33.5t37.5 87.5q0 56 -38.5 88.5t-100.5 32.5q-80 0 -149 -49v97q67 40 154 40q100 0 164.5 -55.5t64.5 -144.5q0 -60 -31 -104t-85 -60v-2q65 -14 98 -60.5t33 -110.5
q0 -94 -68 -151.5t-174 -57.5q-60 0 -113 19t-86 48z" />
    <glyph glyph-name="four" unicode="4" horiz-adv-x="639" 
d="M478 724v-465h130v-84h-130v-175h-94v175h-365l-1 2l373 547h87zM294 443l-124 -182l1 -2h213v171q0 60 2 148l-2 1q-28 -46 -90 -136z" />
    <glyph glyph-name="five" unicode="5" horiz-adv-x="544" 
d="M56 37l7 99q80 -59 175 -59q72 0 117 34.5t45 93.5q0 40 -21.5 69t-57.5 44t-74 21.5t-80 6.5t-81 -6l29 384h360l-7 -86h-265l-15 -209q60 0 112 -11.5t97 -36t71.5 -69t26.5 -103.5q0 -100 -71 -160t-186 -60q-106 0 -182 48z" />
    <glyph glyph-name="six" unicode="6" horiz-adv-x="599" 
d="M301 724h109l-172 -274q-17 -26 -27 -44l2 -1q44 32 110 32q93 0 156.5 -62.5t63.5 -156.5q0 -99 -70 -164t-176 -65q-107 0 -176.5 66t-69.5 173q0 51 19.5 103.5t68.5 131.5zM147 219q0 -58 42.5 -102t108.5 -44q63 0 107 39.5t44 102.5q0 61 -42 101.5t-107 40.5
q-64 0 -108.5 -39.5t-44.5 -98.5z" />
    <glyph glyph-name="seven" unicode="7" horiz-adv-x="558" 
d="M120 0l267 638h-339v86h472l1 -2l-302 -722h-99z" />
    <glyph glyph-name="eight" unicode="8" horiz-adv-x="604" 
d="M59 203q0 64 33 111.5t92 67.5v2q-105 43 -105 153q0 86 62 142t161 56t161 -56t62 -142q0 -110 -105 -153v-2q59 -20 92 -67.5t33 -111.5q0 -93 -67 -153.5t-176 -60.5t-176 60.5t-67 153.5zM302 415q56 0 94.5 33.5t38.5 84.5t-38 84.5t-95 33.5t-95 -33.5t-38 -84.5
t38.5 -84.5t94.5 -33.5zM153 205q0 -58 43 -95t106 -37t106 37t43 95t-43 96t-106 38t-106 -38t-43 -96z" />
    <glyph glyph-name="nine" unicode="9" horiz-adv-x="586" 
d="M279 0h-109l194 309l-2 2q-40 -24 -98 -24q-90 0 -154.5 61.5t-64.5 156.5q0 100 70.5 165t177.5 65q106 0 174 -64.5t68 -168.5q0 -58 -21.5 -109.5t-65.5 -122.5zM289 368q67 0 108.5 40.5t41.5 98.5q0 57 -42.5 100t-106.5 43q-62 0 -106.5 -39.5t-44.5 -102.5
q0 -60 42 -100t108 -40z" />
    <glyph glyph-name="colon" unicode=":" horiz-adv-x="294" 
d="M147 373q-27 0 -46 19t-19 46t19 46t46 19t46 -19t19 -46t-19 -46t-46 -19zM82 54q0 27 19 46t46 19t46 -19t19 -46t-19 -46t-46 -19t-46 19t-19 46z" />
    <glyph glyph-name="semicolon" unicode=";" horiz-adv-x="294" 
d="M56 -147l56 283h91l-81 -283h-66zM147 373q-27 0 -46 19t-19 46t19 46t46 19t46 -19t19 -46t-19 -46t-46 -19z" />
    <glyph glyph-name="less" unicode="&#x3c;" horiz-adv-x="687" 
d="M90 336v52l507 216v-77l-387 -164v-2l387 -164v-77z" />
    <glyph glyph-name="equal" unicode="=" horiz-adv-x="588" 
d="M53 428v72h482v-72h-482zM53 224v72h482v-72h-482z" />
    <glyph glyph-name="greater" unicode="&#x3e;" horiz-adv-x="687" 
d="M90 120v77l387 164v2l-387 164v77l507 -216v-52z" />
    <glyph glyph-name="question" unicode="?" horiz-adv-x="467" 
d="M135 191l-21 180q101 0 161 35.5t60 105.5q0 59 -40 97t-99 38q-73 0 -133 -44l-10 92q62 40 146 40q99 0 165 -63t66 -154q0 -87 -61.5 -147.5t-153.5 -71.5l4 -108h-84zM126 52q0 26 18.5 44.5t44.5 18.5t44.5 -18.5t18.5 -44.5t-18.5 -44.5t-44.5 -18.5t-44.5 18.5
t-18.5 44.5z" />
    <glyph glyph-name="at" unicode="@" horiz-adv-x="807" 
d="M34 246q0 158 105.5 265.5t264.5 107.5q158 0 263.5 -107t105.5 -260q0 -89 -39 -143.5t-113 -54.5q-81 0 -114 61h-2q-53 -62 -133 -62q-69 0 -113 47.5t-44 123.5q0 86 55 150.5t142 64.5q55 0 103 -35l56 10l-17 -195q-1 -10 -1 -18q0 -47 19.5 -72t55.5 -25
q43 0 69 36t26 107q0 135 -88.5 229.5t-229.5 94.5t-231 -95t-90 -230q0 -136 89.5 -230.5t229.5 -94.5q124 0 212 75l27 -41q-99 -82 -238 -82q-160 0 -265 107t-105 266zM382 111q66 0 107 56q-2 20 1 56l10 119q-39 39 -92 39q-56 0 -91.5 -47t-35.5 -108q0 -51 27 -83
t74 -32z" />
    <glyph glyph-name="A" unicode="A" horiz-adv-x="698" 
d="M5 0l298 724h91l299 -724h-102l-81 202h-326l-82 -202h-97zM276 432l-59 -147h260l-59 150q-38 95 -69 179h-2q-29 -79 -71 -182z" />
    <glyph glyph-name="B" unicode="B" horiz-adv-x="634" 
d="M81 0v724h194q131 0 193 -38q85 -51 85 -148q0 -59 -30.5 -97.5t-79.5 -55.5v-2q66 -15 102.5 -58t36.5 -111q0 -108 -83 -166q-68 -48 -226 -48h-192zM176 408h143q59 0 99 28.5t40 84.5q0 61 -51 92q-43 25 -145 25h-86v-230zM176 86h103q117 0 161 31q47 33 47 95
q0 60 -44.5 91.5t-126.5 31.5h-140v-249z" />
    <glyph glyph-name="C" unicode="C" horiz-adv-x="681" 
d="M41 360q0 158 105 266.5t272 108.5q113 0 204 -51v-104q-90 67 -205 67q-123 0 -202 -81.5t-79 -203.5t80.5 -203.5t208.5 -81.5q118 0 208 73v-105q-88 -56 -213 -56q-164 0 -271.5 105.5t-107.5 265.5z" />
    <glyph glyph-name="D" unicode="D" horiz-adv-x="735" 
d="M81 0v724h199q158 0 256 -59q77 -47 119.5 -126t42.5 -174q0 -90 -37.5 -166.5t-106.5 -125.5q-104 -73 -298 -73h-175zM176 86h95q140 0 215 48q53 34 85 94t32 134q0 75 -32 133.5t-84 92.5q-75 50 -218 50h-93v-552z" />
    <glyph glyph-name="E" unicode="E" horiz-adv-x="551" 
d="M81 0v724h418v-86h-323v-220h283v-83h-283v-249h332v-86h-427z" />
    <glyph glyph-name="F" unicode="F" horiz-adv-x="556" 
d="M81 0v724h428v-86h-333v-234h293v-83h-293v-321h-95z" />
    <glyph glyph-name="G" unicode="G" horiz-adv-x="735" 
d="M41 360q0 161 107.5 268t274.5 107q125 0 222 -60v-108q-97 80 -224 80q-126 0 -205.5 -82t-79.5 -203q0 -120 78.5 -203.5t209.5 -83.5q83 0 148 34v169h-162v83h257v-299q-106 -73 -251 -73q-161 0 -268 105t-107 266z" />
    <glyph glyph-name="H" unicode="H" horiz-adv-x="746" 
d="M81 0v724h95v-305h394v305h95v-724h-95v333h-394v-333h-95z" />
    <glyph glyph-name="I" unicode="I" horiz-adv-x="257" 
d="M81 0v724h95v-724h-95z" />
    <glyph glyph-name="J" unicode="J" horiz-adv-x="398" 
d="M29 10v90q55 -23 103 -23q54 0 72 31.5t18 96.5v519h95v-514q0 -114 -38 -161q-49 -60 -145 -60q-48 0 -105 21z" />
    <glyph glyph-name="K" unicode="K" horiz-adv-x="627" 
d="M81 0v724h95v-328l2 -1l316 329h118l-325 -336l353 -388h-124l-338 374l-2 -1v-373h-95z" />
    <glyph glyph-name="L" unicode="L" horiz-adv-x="547" 
d="M81 0v724h95v-638h342v-86h-437z" />
    <glyph glyph-name="M" unicode="M" horiz-adv-x="859" 
d="M428 197l-158 226q-33 47 -97 143l-2 -1q2 -86 2 -157v-408h-92v724h92l257 -368l257 368h91v-724h-95v408q0 71 2 157l-2 1q-64 -96 -97 -143z" />
    <glyph glyph-name="N" unicode="N" horiz-adv-x="772" 
d="M173 0h-92v724h90l303 -402q59 -78 125 -169l2 1q-2 126 -2 206v364h92v-724h-90l-303 402q-59 78 -125 169l-2 -1q2 -126 2 -206v-364z" />
    <glyph glyph-name="O" unicode="O" horiz-adv-x="816" 
d="M40 362q0 158 105.5 265.5t262.5 107.5t262.5 -107.5t105.5 -265.5t-105.5 -265.5t-262.5 -107.5t-262.5 107.5t-105.5 265.5zM135 362q0 -120 77.5 -202.5t195.5 -82.5t195.5 82.5t77.5 202.5t-77.5 202.5t-195.5 82.5t-195.5 -82.5t-77.5 -202.5z" />
    <glyph glyph-name="P" unicode="P" horiz-adv-x="622" 
d="M81 0v724h189q146 0 214 -38q105 -58 105 -179q0 -60 -26.5 -106.5t-71.5 -73.5q-43 -26 -99 -33.5t-141 -7.5h-75v-286h-95zM176 369h87q70 0 107.5 5t65.5 22q58 35 58 107q0 78 -67 112q-46 23 -165 23h-86v-269z" />
    <glyph glyph-name="Q" unicode="Q" horiz-adv-x="816" 
d="M40 362q0 158 105.5 265.5t262.5 107.5t262.5 -107.5t105.5 -265.5q0 -127 -70.5 -224t-185.5 -132v-2q105 -71 231 -116l-93 -56q-131 52 -258 157h1q-154 3 -257.5 110t-103.5 263zM135 362q0 -120 77.5 -202.5t195.5 -82.5t195.5 82.5t77.5 202.5t-77.5 202.5
t-195.5 82.5t-195.5 -82.5t-77.5 -202.5z" />
    <glyph glyph-name="R" unicode="R" horiz-adv-x="646" 
d="M81 0v724h196q138 0 202 -36q100 -55 100 -169t-93 -170q-36 -22 -83 -30l232 -319h-115l-221 310h-123v-310h-95zM176 388h123q98 0 142 33q43 32 43 90q0 70 -59 103q-45 24 -155 24h-94v-250z" />
    <glyph glyph-name="S" unicode="S" horiz-adv-x="561" 
d="M64 44v104q48 -36 106 -54t110 -18q67 0 107 30.5t40 87.5q0 31 -11 52.5t-38.5 36.5t-46.5 22t-63 19l-21 6q-45 13 -75.5 26t-62 36t-47.5 58.5t-16 82.5q0 95 63.5 148.5t170.5 53.5q123 0 208 -54v-100q-96 67 -210 67q-63 0 -100.5 -27.5t-37.5 -81.5q0 -13 3 -25
t6.5 -21t11.5 -17.5t13.5 -14t18.5 -12l20 -10t23.5 -8.5t23.5 -7t26 -7.5t26 -7.5q37 -10 63 -20t55.5 -27t47.5 -38t30.5 -53t12.5 -72q0 -98 -66 -154t-176 -56q-120 0 -215 55z" />
    <glyph glyph-name="T" unicode="T" horiz-adv-x="621" 
d="M263 0v638h-243v86h581v-86h-243v-638h-95z" />
    <glyph glyph-name="U" unicode="U" horiz-adv-x="730" 
d="M121 102q-48 74 -48 239v383h95v-373q0 -134 28 -187q46 -87 172 -87q124 0 170 87q27 50 27 183v377h92v-372q0 -90 -9.5 -148t-38.5 -102q-35 -53 -98.5 -83t-146.5 -30t-145.5 30t-97.5 83z" />
    <glyph glyph-name="V" unicode="V" horiz-adv-x="664" 
d="M284 0l-279 724h102l154 -406q37 -98 71 -192h2q35 95 73 195l155 403h97l-278 -724h-97z" />
    <glyph glyph-name="W" unicode="W" horiz-adv-x="1013" 
d="M237 0l-225 724h101l121 -392q31 -101 57 -189h2q18 62 58 190l123 391h70l123 -392q38 -121 58 -189h2q22 76 57 190l121 391h96l-225 -724h-101l-116 368q-27 86 -51 168h-2q-28 -95 -51 -169l-115 -367h-103z" />
    <glyph glyph-name="X" unicode="X" horiz-adv-x="659" 
d="M-2 0l271 384l-238 340h113l111 -160q43 -62 78 -115h2q47 71 78 116l110 159h106l-237 -340l271 -384h-114l-139 198q-35 49 -82 120h-2q-48 -71 -80 -117l-141 -201h-107z" />
    <glyph glyph-name="Y" unicode="Y" horiz-adv-x="655" 
d="M281 0v327l-279 397h110l123 -177q70 -102 94 -138h2q29 44 94 139l122 176h106l-277 -396v-328h-95z" />
    <glyph glyph-name="Z" unicode="Z" horiz-adv-x="639" 
d="M598 0h-568l-1 2l410 634l-1 2h-383v86h550l1 -2l-410 -634l1 -2h401v-86z" />
    <glyph glyph-name="bracketleft" unicode="[" horiz-adv-x="360" 
d="M179 -141h134v-72h-217v956h217v-72h-134v-812z" />
    <glyph glyph-name="backslash" unicode="\" horiz-adv-x="446" 
d="M354 -38l-336 800h74l336 -800h-74z" />
    <glyph glyph-name="bracketright" unicode="]" horiz-adv-x="360" 
d="M47 -141h134v812h-134v72h217v-956h-217v72z" />
    <glyph glyph-name="asciicircum" unicode="^" horiz-adv-x="575" 
d="M71 362l184 373h65l184 -373h-75l-141 275h-1l-141 -275h-75z" />
    <glyph glyph-name="underscore" unicode="_" horiz-adv-x="475" 
d="M0 -90h475v-52h-475v52z" />
    <glyph glyph-name="grave" unicode="`" 
d="M241 563l-110 164h101l77 -164h-68z" />
    <glyph glyph-name="a" unicode="a" horiz-adv-x="532" 
d="M215 -11q-71 0 -117 35q-52 39 -52 109q0 78 65 120q51 33 138 33q53 0 105 -13v41q0 54 -28 81q-30 27 -91 27q-84 0 -151 -49v88q69 42 164 42q98 0 147 -45q49 -44 49 -129v-209q0 -52 38 -52q15 0 29 7v-75q-22 -9 -48 -9q-67 0 -95 52h-2q-24 -22 -64.5 -38
t-86.5 -16zM231 69q69 0 123 43v92q-44 13 -96 13t-86.5 -18t-34.5 -58q0 -35 26 -53.5t68 -18.5z" />
    <glyph glyph-name="b" unicode="b" horiz-adv-x="595" 
d="M79 0v764h90v-300l2 -1q62 40 139 40q102 0 171 -70t69 -180q0 -114 -74 -189t-187 -75q-59 0 -123 26zM169 100q54 -32 123 -32q74 0 120.5 51t46.5 129q0 75 -44 124.5t-116 49.5q-74 0 -130 -46v-276z" />
    <glyph glyph-name="c" unicode="c" horiz-adv-x="510" 
d="M459 119v-96q-62 -34 -147 -34q-117 0 -192 72t-75 182q0 113 78.5 186.5t194.5 73.5q73 0 133 -31v-93q-66 42 -137 42q-79 0 -128.5 -51t-49.5 -127t50.5 -124t130.5 -48q81 0 142 48z" />
    <glyph glyph-name="d" unicode="d" horiz-adv-x="597" 
d="M47 238q0 114 73 189.5t188 75.5q59 0 118 -26l2 1v286h90v-764h-90v30l-2 1q-60 -42 -138 -42q-102 0 -171.5 69t-69.5 180zM138 243q0 -75 44 -124.5t118 -49.5q67 0 128 42v281q-60 31 -121 31q-76 0 -122.5 -51t-46.5 -129z" />
    <glyph glyph-name="e" unicode="e" horiz-adv-x="563" 
d="M511 220h-376q10 -71 59 -110.5t123 -39.5q89 0 170 61v-96q-72 -46 -176 -46q-116 0 -191 71t-75 186q0 113 71.5 185t173.5 72q95 0 159.5 -63.5t64.5 -174.5q0 -27 -3 -45zM288 422q-53 0 -96.5 -33.5t-54.5 -97.5h290q-5 67 -46 99t-93 32z" />
    <glyph glyph-name="f" unicode="f" horiz-adv-x="344" 
d="M104 0v411h-78v81h78v94q0 105 44 148q42 41 115 41q40 0 74 -10v-81q-34 9 -70 9q-43 0 -58 -24.5t-15 -69.5v-107h126v-81h-126v-411h-90z" />
    <glyph glyph-name="g" unicode="g" horiz-adv-x="595" 
d="M112 -194v96q77 -51 156 -51q71 0 114 40t43 109v36l-2 1q-56 -38 -134 -38q-102 0 -171.5 69.5t-69.5 176.5q0 108 69.5 183t185.5 75q67 0 125 -28l87 15v-488q0 -108 -66.5 -170.5t-180.5 -62.5q-84 0 -156 37zM139 251q0 -75 45.5 -124t117.5 -49q73 0 123 40v271
q-55 34 -124 34q-73 0 -117.5 -49t-44.5 -123z" />
    <glyph glyph-name="h" unicode="h" horiz-adv-x="592" 
d="M79 0v764h90v-334l2 -1q74 74 172 74q83 0 131 -54q41 -47 41 -145v-304h-90v287q0 73 -24 100q-28 32 -75 32q-43 0 -85.5 -23t-71.5 -59v-337h-90z" />
    <glyph glyph-name="i" unicode="i" horiz-adv-x="248" 
d="M61 661q0 26 18.5 44.5t44.5 18.5t44.5 -18.5t18.5 -44.5t-18.5 -44.5t-44.5 -18.5t-44.5 18.5t-18.5 44.5zM79 0v492h90v-492h-90z" />
    <glyph glyph-name="j" unicode="j" horiz-adv-x="249" 
d="M62 661q0 26 18.5 44.5t44.5 18.5t44.5 -18.5t18.5 -44.5t-18.5 -44.5t-44.5 -18.5t-44.5 18.5t-18.5 44.5zM80 -55v547h90v-543q0 -94 -34 -133q-40 -47 -121 -47q-32 0 -59 8v81q33 -7 56 -7q40 0 54 23.5t14 70.5z" />
    <glyph glyph-name="k" unicode="k" horiz-adv-x="528" 
d="M79 0v764h90v-488l2 -1l220 217h115l-225 -220l249 -272h-118l-241 267l-2 -1v-266h-90z" />
    <glyph glyph-name="l" unicode="l" horiz-adv-x="248" 
d="M79 0v764h90v-764h-90z" />
    <glyph glyph-name="m" unicode="m" horiz-adv-x="923" 
d="M756 0v291q0 69 -25 98q-26 30 -75 30q-41 0 -82 -22.5t-68 -54.5q1 -11 1 -35v-307h-90v291q0 70 -23 97q-27 31 -75 31q-41 0 -82 -22t-68 -55v-342h-90v492h90v-60l2 -1q72 72 167 72q48 0 88.5 -21.5t62.5 -63.5q90 85 187 85q83 0 129 -52q41 -45 41 -144v-307h-90z
" />
    <glyph glyph-name="n" unicode="n" horiz-adv-x="592" 
d="M79 0v492h90v-62l2 -1q74 74 172 74q83 0 131 -54q41 -47 41 -145v-304h-90v287q0 73 -23 100q-27 32 -79 32q-42 0 -84.5 -23t-69.5 -59v-337h-90z" />
    <glyph glyph-name="o" unicode="o" horiz-adv-x="610" 
d="M45 246q0 109 74.5 183t185.5 74t185.5 -74t74.5 -183t-74.5 -183t-185.5 -74t-185.5 74t-74.5 183zM135 246q0 -75 48.5 -125t121.5 -50t121.5 50t48.5 125t-48.5 125t-121.5 50t-121.5 -50t-48.5 -125z" />
    <glyph glyph-name="p" unicode="p" horiz-adv-x="595" 
d="M169 15v-235h-90v712h90v-32l2 -1q62 44 140 44q101 0 169.5 -71.5t68.5 -183.5q0 -116 -74 -187.5t-183 -71.5q-65 0 -121 27zM169 102q62 -34 125 -34q73 0 118.5 48.5t45.5 124.5q0 77 -45 129t-117 52q-73 0 -127 -45v-275z" />
    <glyph glyph-name="q" unicode="q" horiz-adv-x="597" 
d="M47 242q0 116 74 188.5t186 72.5q64 0 123 -28l88 15v-710h-90v247l-2 1q-63 -39 -136 -39q-103 0 -173 70.5t-70 182.5zM138 247q0 -75 45 -127t118 -52t127 42v279q-60 34 -124 34q-74 0 -120 -49.5t-46 -126.5z" />
    <glyph glyph-name="r" unicode="r" horiz-adv-x="367" 
d="M79 0v492h90v-72l2 -1q55 77 146 77q17 0 32 -4v-89q-16 4 -35 4q-94 0 -145 -87v-320h-90z" />
    <glyph glyph-name="s" unicode="s" horiz-adv-x="499" 
d="M66 28v94q83 -52 187 -52q112 0 112 68q0 12 -3.5 21.5t-12.5 16.5t-17.5 11.5t-24.5 8t-26 5.5t-31 5t-32 5q-82 14 -125 44t-43 97q1 74 56.5 112.5t145.5 38.5q102 0 176 -39v-90q-82 48 -180 48q-107 0 -107 -63q0 -12 3.5 -21t12 -15t17 -10.5t23.5 -7.5t26 -5
t30.5 -5t30.5 -5q40 -7 67.5 -15.5t53 -24t38.5 -41.5t13 -63q0 -80 -59.5 -118.5t-147.5 -38.5q-107 0 -183 39z" />
    <glyph glyph-name="t" unicode="t" horiz-adv-x="389" 
d="M154 35q-37 42 -37 136v240h-91v81h91v134l90 15v-149h148v-81h-148v-223q0 -55 15 -86t59 -31q41 0 74 21v-85q-36 -18 -89 -18q-72 0 -112 46z" />
    <glyph glyph-name="u" unicode="u" horiz-adv-x="592" 
d="M117 44q-40 47 -40 147v301h90v-284q0 -74 24 -102q27 -34 78 -34q43 0 84 24t70 60v336h90v-492h-90v62l-2 1q-74 -74 -170 -74q-86 0 -134 55z" />
    <glyph glyph-name="v" unicode="v" horiz-adv-x="547" 
d="M229 0l-207 492h98l91 -222q34 -84 63 -158h2q30 76 66 164l89 216h94l-206 -492h-90z" />
    <glyph glyph-name="w" unicode="w" horiz-adv-x="825" 
d="M197 0l-171 492h98l73 -219q22 -67 49 -152h2q23 67 54 152l81 219h64l81 -219q27 -71 54 -152h2q21 70 48 151l73 220h94l-171 -492h-89l-77 211q-22 59 -48 138h-2q-26 -79 -48 -138l-77 -211h-90z" />
    <glyph glyph-name="x" unicode="x" 
d="M400 0l-73 99q-43 58 -76 105h-2q-19 -26 -78 -107l-72 -97h-102l197 261l-174 231h106l53 -72q48 -65 73 -101h2q30 43 73 102l52 71h102l-172 -229l197 -263h-106z" />
    <glyph glyph-name="y" unicode="y" horiz-adv-x="550" 
d="M192 -220h-98l133 273l-205 439h100l86 -186q36 -79 67 -148h2q44 98 67 148l86 186h95z" />
    <glyph glyph-name="z" unicode="z" horiz-adv-x="471" 
d="M441 0h-421l-1 2l269 406l-1 2h-248v82h407l1 -2l-269 -406l1 -2h262v-82z" />
    <glyph glyph-name="braceleft" unicode="{" horiz-adv-x="382" 
d="M137 -66v211q0 47 -14.5 65.5t-64.5 18.5h-25v72h25q50 0 64.5 18.5t14.5 65.5v211q0 158 147 158q37 0 60 -5v-71q-17 4 -48 4q-43 0 -59.5 -21.5t-16.5 -74.5v-196q0 -53 -13.5 -83t-48.5 -41v-2q35 -11 48.5 -41t13.5 -83v-196q0 -53 16.5 -74.5t59.5 -21.5q31 0 48 4
v-71q-23 -5 -60 -5q-147 0 -147 158z" />
    <glyph glyph-name="bar" unicode="|" horiz-adv-x="320" 
d="M123 -220v1020h74v-1020h-74z" />
    <glyph glyph-name="braceright" unicode="}" horiz-adv-x="382" 
d="M162 -56v196q0 53 13.5 83t48.5 41v2q-35 11 -48.5 41t-13.5 83v196q0 53 -16.5 74.5t-59.5 21.5q-31 0 -48 -4v71q23 5 60 5q147 0 147 -158v-211q0 -47 14.5 -65.5t64.5 -18.5h25v-72h-25q-50 0 -64.5 -18.5t-14.5 -65.5v-211q0 -158 -147 -158q-37 0 -60 5v71
q17 -4 48 -4q43 0 59.5 21.5t16.5 74.5z" />
    <glyph glyph-name="asciitilde" unicode="~" horiz-adv-x="554" 
d="M384 289q-47 0 -117 36q-64 33 -97 33q-56 0 -93 -64l-2 1v101q35 39 95 39q47 0 117 -36q64 -33 97 -33q54 0 93 64l2 -1v-101q-36 -39 -95 -39z" />
    <glyph glyph-name="uni00A0" unicode="&#xa0;" horiz-adv-x="242" 
 />
    <glyph glyph-name="exclamdown" unicode="&#xa1;" horiz-adv-x="306" 
d="M182 270l24 -502h-104l24 502h56zM217 440q0 -26 -18.5 -44.5t-44.5 -18.5t-44.5 18.5t-18.5 44.5t18.5 44.5t44.5 18.5t44.5 -18.5t18.5 -44.5z" />
    <glyph glyph-name="cent" unicode="&#xa2;" horiz-adv-x="518" 
d="M244 -18v129q-92 20 -147.5 87t-55.5 160q0 95 56 163.5t147 89.5v131h73v-123q73 0 133 -32v-94q-67 44 -137 44q-81 0 -131 -51t-50 -126q0 -77 50.5 -125t131.5 -48q83 0 145 52v-97q-60 -35 -142 -37v-123h-73z" />
    <glyph glyph-name="sterling" unicode="&#xa3;" horiz-adv-x="574" 
d="M80 309v76h53q-35 91 -35 144q0 95 66.5 150.5t169.5 55.5q97 0 164 -41v-101q-74 54 -162 54q-63 0 -103 -33.5t-40 -88.5q0 -39 38 -140h186v-76h-163q7 -35 7 -60q0 -92 -64 -161v-2h329v-86h-446v71q38 30 64.5 76.5t26.5 97.5q0 29 -10 64h-81z" />
    <glyph glyph-name="currency" unicode="&#xa4;" horiz-adv-x="606" 
d="M162 350q0 -60 40 -101t101 -41t101 41t40 101t-40 101t-101 41t-101 -41t-40 -101zM90 350q0 67 34 118l-76 76l59 59l75 -75q52 35 121 35t121 -35l75 75l59 -59l-76 -76q34 -51 34 -118t-34 -118l76 -76l-59 -59l-75 75q-52 -35 -121 -35t-121 35l-75 -75l-59 59
l76 76q-34 51 -34 118z" />
    <glyph glyph-name="yen" unicode="&#xa5;" horiz-adv-x="669" 
d="M91 405v73h114l-172 246h109l99 -142q70 -102 94 -138h2q29 44 94 139l98 141h106l-173 -246h116v-73h-167l-29 -42v-71h196v-73h-196v-219h-95v219h-196v73h196v70l-30 43h-166z" />
    <glyph glyph-name="brokenbar" unicode="&#xa6;" horiz-adv-x="320" 
d="M123 408v392h74v-392h-74zM123 172h74v-392h-74v392z" />
    <glyph glyph-name="section" unicode="&#xa7;" horiz-adv-x="565" 
d="M119 -25q77 -50 152 -50q49 0 80 22t31 63q0 11 -2 20.5t-8 18t-11 15t-16.5 13.5t-18 11.5t-22.5 11t-23.5 9.5t-27.5 10t-27 10q-36 14 -61.5 27t-53 34t-42 50t-14.5 65q0 98 105 140v2q-58 44 -58 118q0 75 56 120.5t142 45.5q78 0 141 -36v-90q-69 46 -140 46
q-48 0 -78.5 -22t-30.5 -61q0 -14 4 -26t14 -22.5t17.5 -17t26 -15t27 -12.5t32.5 -12.5t32 -11.5q38 -14 63.5 -27t53 -34t42 -51t14.5 -68q0 -102 -104 -137v-2q58 -48 58 -121q0 -76 -55.5 -121t-144.5 -45q-87 0 -153 38v92zM277 387q-12 4 -36 14q-96 -20 -96 -90
q0 -11 2 -21t8 -18.5t11 -15.5t16 -13.5t18 -11t22 -10.5t22 -9t24.5 -9t24.5 -9q24 -9 45 -18q90 18 90 90q0 31 -20.5 53.5t-44.5 33.5t-72 29q-9 3 -14 5z" />
    <glyph glyph-name="dieresis" unicode="&#xa8;" 
d="M294 645q0 23 16 39t39 16t39 -16t16 -39t-16 -39t-39 -16t-39 16t-16 39zM98 645q0 23 16 39t39 16t39 -16t16 -39t-16 -39t-39 -16t-39 16t-16 39z" />
    <glyph glyph-name="copyright" unicode="&#xa9;" horiz-adv-x="808" 
d="M34 362q0 158 106 265.5t264 107.5t264 -107.5t106 -265.5t-106 -265.5t-264 -107.5t-264 107.5t-106 265.5zM81 362q0 -139 91 -233t232 -94t232 94t91 233t-91 233t-232 94t-232 -94t-91 -233zM212 365q0 88 60 147t152 59q59 0 110 -27v-66q-51 36 -111 36
q-65 0 -106.5 -42.5t-41.5 -105.5q0 -64 42 -105t109 -41q65 0 114 41v-68q-48 -30 -117 -30q-92 0 -151.5 57.5t-59.5 144.5z" />
    <glyph glyph-name="ordfeminine" unicode="&#xaa;" horiz-adv-x="363" 
d="M160 401q-43 0 -75 23q-36 27 -36 72q0 50 41 77q32 21 91 21q36 0 65 -7v23q0 66 -73 66q-51 0 -98 -31v64q43 27 106 27q64 0 99 -29q33 -28 33 -84v-133q0 -32 23 -32q10 0 18 5v-54q-14 -7 -34 -7q-44 0 -63 31h-1q-38 -32 -96 -32zM172 455q43 0 74 26v56
q-26 8 -58 8q-73 0 -73 -47q0 -21 16 -32t41 -11z" />
    <glyph glyph-name="guillemotleft" unicode="&#xab;" horiz-adv-x="548" 
d="M212 27l-166 219l166 219h78l-166 -219l166 -219h-78zM416 27l-166 219l166 219h78l-166 -219l166 -219h-78z" />
    <glyph glyph-name="logicalnot" unicode="&#xac;" horiz-adv-x="588" 
d="M54 326v72h482v-282h-74v210h-408z" />
    <glyph glyph-name="uni00AD" unicode="&#xad;" horiz-adv-x="352" 
d="M57 237v80h238v-80h-238z" />
    <glyph glyph-name="registered" unicode="&#xae;" horiz-adv-x="448" 
d="M224 363q-81 0 -134 53t-53 133t53 133t134 53t134 -53t53 -133t-53 -133t-134 -53zM224 392q69 0 113 44.5t44 112.5t-44 112.5t-113 44.5t-113 -44.5t-44 -112.5t44 -112.5t113 -44.5zM268 448l-43 73h-33v-73h-36v202h72q32 0 54 -17.5t22 -47.5q0 -43 -44 -59l49 -78
h-41zM192 552h33q42 0 42 33q0 32 -42 32h-33v-65z" />
    <glyph glyph-name="macron" unicode="&#xaf;" 
d="M114 611v68h274v-68h-274z" />
    <glyph glyph-name="degree" unicode="&#xb0;" horiz-adv-x="378" 
d="M189 441q-65 0 -107.5 42.5t-42.5 104.5t42.5 104.5t107.5 42.5t107.5 -42.5t42.5 -104.5t-42.5 -104.5t-107.5 -42.5zM189 488q44 0 73 29.5t29 70.5t-29 70.5t-73 29.5t-73 -29.5t-29 -70.5t29 -70.5t73 -29.5z" />
    <glyph glyph-name="plusminus" unicode="&#xb1;" horiz-adv-x="588" 
d="M257 238v180h-191v72h191v180h74v-180h191v-72h-191v-180h-74zM66 78v72h456v-72h-456z" />
    <glyph glyph-name="two.superior" unicode="&#xb2;" horiz-adv-x="366" 
d="M20 422l-1 2l145 169q70 82 70 134q0 32 -21 49.5t-57 17.5q-52 0 -104 -37v76q51 30 110 30q67 0 107.5 -36.5t40.5 -97.5q0 -73 -74 -159l-67 -78l1 -2h156v-68h-306z" />
    <glyph glyph-name="three.superior" unicode="&#xb3;" horiz-adv-x="355" 
d="M36 449v79q62 -45 124 -45q37 0 60.5 17.5t23.5 47.5q0 28 -23 44.5t-67 16.5h-44v60h41q39 0 60.5 17.5t21.5 45.5q0 29 -22 46t-59 17q-49 0 -92 -30v72q42 26 102 26q63 0 105 -34t42 -87q0 -32 -16 -58.5t-47 -35.5v-2q74 -23 74 -102q0 -58 -45 -93.5t-115 -35.5
q-73 0 -124 34z" />
    <glyph glyph-name="acute" unicode="&#xb4;" 
d="M371 727l-110 -164h-68l77 164h101z" />
    <glyph glyph-name="mu" unicode="&#xb5;" horiz-adv-x="594" 
d="M173 -220h-94v712h90v-284q0 -74 24 -102q27 -34 78 -34q43 0 84 24t70 60v336h90v-492h-90v62l-2 1q-74 -74 -167 -74q-53 0 -90 23l-2 -1z" />
    <glyph glyph-name="paragraph" unicode="&#xb6;" horiz-adv-x="570" 
d="M239 -220v582q-76 0 -129.5 53t-53.5 128t53.5 128t129.5 53h231v-944h-74v876h-83v-876h-74z" />
    <glyph glyph-name="periodcentered" unicode="&#xb7;" horiz-adv-x="294" 
d="M81 302q0 27 19.5 46.5t46.5 19.5t46.5 -19.5t19.5 -46.5t-19.5 -46.5t-46.5 -19.5t-46.5 19.5t-19.5 46.5z" />
    <glyph glyph-name="cedilla" unicode="&#xb8;" 
d="M204 -86l36 118l45 -10l-20 -65q89 -20 89 -90q0 -40 -28.5 -64t-76.5 -24q-44 0 -80 18l15 51q38 -19 64 -19q21 0 34.5 9t13.5 26q0 45 -92 50z" />
    <glyph glyph-name="one.superior" unicode="&#xb9;" horiz-adv-x="326" 
d="M148 422v345l-101 -36v69l175 63v-441h-74z" />
    <glyph glyph-name="ordmasculine" unicode="&#xba;" horiz-adv-x="409" 
d="M204 401q-76 0 -123 47t-47 120t47 120t123 47q75 0 122.5 -47t47.5 -120t-47.5 -120t-122.5 -47zM204 462q45 0 73.5 30t28.5 76t-28.5 76t-73.5 30t-73.5 -30t-28.5 -76t28.5 -76t73.5 -30z" />
    <glyph glyph-name="guillemotright" unicode="&#xbb;" horiz-adv-x="548" 
d="M54 27l166 219l-166 219h78l166 -219l-166 -219h-78zM258 27l166 219l-166 219h78l166 -219l-166 -219h-78z" />
    <glyph glyph-name="onequarter" unicode="&#xbc;" horiz-adv-x="938" 
d="M255 -13h-82l477 737h82zM734 0v100h-228l-1 2l234 332h69v-274h75v-60h-75v-100h-74zM676 247l-60 -85l1 -2h117v72q0 46 2 100l-2 1q-27 -41 -58 -86zM165 294v345l-101 -36v69l175 63v-441h-74z" />
    <glyph glyph-name="onehalf" unicode="&#xbd;" horiz-adv-x="978" 
d="M597 0l-1 2l145 169q70 82 70 134q0 32 -21 49.5t-57 17.5q-52 0 -104 -37v76q51 30 110 30q67 0 107.5 -36.5t40.5 -97.5q0 -73 -74 -159l-67 -78l1 -2h156v-68h-306zM255 -13h-82l477 737h82zM165 294v345l-101 -36v69l175 63v-441h-74z" />
    <glyph glyph-name="threequarters" unicode="&#xbe;" horiz-adv-x="988" 
d="M68 321v79q62 -45 124 -45q37 0 60.5 17.5t23.5 47.5q0 28 -23 44.5t-67 16.5h-44v60h41q39 0 60.5 17.5t21.5 45.5q0 29 -22 46t-59 17q-49 0 -92 -30v72q42 26 102 26q63 0 105 -34t42 -87q0 -32 -16 -58.5t-47 -35.5v-2q74 -23 74 -102q0 -58 -45 -93.5t-115 -35.5
q-73 0 -124 34zM305 -13h-82l477 737h82zM784 0v100h-228l-1 2l234 332h69v-274h75v-60h-75v-100h-74zM726 247l-60 -85l1 -2h117v72q0 46 2 100l-2 1q-27 -41 -58 -86z" />
    <glyph glyph-name="questiondown" unicode="&#xbf;" horiz-adv-x="467" 
d="M337 301l21 -180q-101 0 -161 -35.5t-60 -105.5q0 -59 40 -97t99 -38q73 0 133 44l10 -92q-62 -40 -146 -40q-99 0 -165 63t-66 154q0 87 61.5 147.5t153.5 71.5l-4 108h84zM346 440q0 -26 -18.5 -44.5t-44.5 -18.5t-44.5 18.5t-18.5 44.5t18.5 44.5t44.5 18.5
t44.5 -18.5t18.5 -44.5z" />
    <glyph glyph-name="Agrave" unicode="&#xc0;" horiz-adv-x="698" 
d="M5 0l298 724h91l299 -724h-102l-81 202h-326l-82 -202h-97zM276 432l-59 -147h260l-59 150q-38 95 -69 179h-2q-29 -79 -71 -182zM339 795l-110 164h101l77 -164h-68z" />
    <glyph glyph-name="Aacute" unicode="&#xc1;" horiz-adv-x="698" 
d="M5 0l298 724h91l299 -724h-102l-81 202h-326l-82 -202h-97zM276 432l-59 -147h260l-59 150q-38 95 -69 179h-2q-29 -79 -71 -182zM469 959l-110 -164h-68l77 164h101z" />
    <glyph glyph-name="Acircumflex" unicode="&#xc2;" horiz-adv-x="698" 
d="M5 0l298 724h91l299 -724h-102l-81 202h-326l-82 -202h-97zM276 432l-59 -147h260l-59 150q-38 95 -69 179h-2q-29 -79 -71 -182zM188 795l113 164h96l113 -164h-75l-86 105l-86 -105h-75z" />
    <glyph glyph-name="Atilde" unicode="&#xc3;" horiz-adv-x="698" 
d="M5 0l298 724h91l299 -724h-102l-81 202h-326l-82 -202h-97zM276 432l-59 -147h260l-59 150q-38 95 -69 179h-2q-29 -79 -71 -182zM342 842q-46 23 -67 23q-39 0 -81 -48l-2 1v78q31 43 83 43q33 0 81 -24q46 -23 67 -23q39 0 81 48l2 -1v-78q-31 -43 -83 -43
q-33 0 -81 24z" />
    <glyph glyph-name="Adieresis" unicode="&#xc4;" horiz-adv-x="698" 
d="M5 0l298 724h91l299 -724h-102l-81 202h-326l-82 -202h-97zM276 432l-59 -147h260l-59 150q-38 95 -69 179h-2q-29 -79 -71 -182zM392 877q0 23 16 39t39 16t39 -16t16 -39t-16 -39t-39 -16t-39 16t-16 39zM196 877q0 23 16 39t39 16t39 -16t16 -39t-16 -39t-39 -16
t-39 16t-16 39z" />
    <glyph glyph-name="Aring" unicode="&#xc5;" horiz-adv-x="698" 
d="M5 0l298 724h91l299 -724h-102l-81 202h-326l-82 -202h-97zM276 432l-59 -147h260l-59 150q-38 95 -69 179h-2q-29 -79 -71 -182zM349 783q-50 0 -83.5 32.5t-33.5 81.5t33.5 81.5t83.5 32.5t83.5 -32.5t33.5 -81.5t-33.5 -81.5t-83.5 -32.5zM349 833q28 0 45.5 18.5
t17.5 45.5t-17.5 45.5t-45.5 18.5t-45.5 -18.5t-17.5 -45.5t17.5 -45.5t45.5 -18.5z" />
    <glyph glyph-name="AE" unicode="&#xc6;" horiz-adv-x="937" 
d="M5 0l420 724h460v-86h-311v-220h271v-83h-271v-249h320v-86h-415v202h-254l-117 -202h-103zM377 464l-104 -179h206v165q0 89 2 193h-2q-43 -79 -102 -179z" />
    <glyph glyph-name="Ccedilla" unicode="&#xc7;" horiz-adv-x="681" 
d="M336 -86l24 79q-142 20 -230.5 121.5t-88.5 245.5q0 158 105 266.5t272 108.5q113 0 204 -51v-104q-90 67 -205 67q-123 0 -202 -81.5t-79 -203.5t80.5 -203.5t208.5 -81.5q118 0 208 73v-105q-88 -56 -226 -56l-10 -32q89 -20 89 -90q0 -40 -28.5 -64t-76.5 -24
q-44 0 -80 18l15 51q38 -19 64 -19q21 0 34.5 9t13.5 26q0 45 -92 50z" />
    <glyph glyph-name="Egrave" unicode="&#xc8;" horiz-adv-x="551" 
d="M81 0v724h418v-86h-323v-220h283v-83h-283v-249h332v-86h-427zM279 795l-110 164h101l77 -164h-68z" />
    <glyph glyph-name="Eacute" unicode="&#xc9;" horiz-adv-x="551" 
d="M81 0v724h418v-86h-323v-220h283v-83h-283v-249h332v-86h-427zM409 959l-110 -164h-68l77 164h101z" />
    <glyph glyph-name="Ecircumflex" unicode="&#xca;" horiz-adv-x="551" 
d="M81 0v724h418v-86h-323v-220h283v-83h-283v-249h332v-86h-427zM128 795l113 164h96l113 -164h-75l-86 105l-86 -105h-75z" />
    <glyph glyph-name="Edieresis" unicode="&#xcb;" horiz-adv-x="551" 
d="M81 0v724h418v-86h-323v-220h283v-83h-283v-249h332v-86h-427zM332 877q0 23 16 39t39 16t39 -16t16 -39t-16 -39t-39 -16t-39 16t-16 39zM136 877q0 23 16 39t39 16t39 -16t16 -39t-16 -39t-39 -16t-39 16t-16 39z" />
    <glyph glyph-name="Igrave" unicode="&#xcc;" horiz-adv-x="257" 
d="M81 0v724h95v-724h-95zM118 795l-110 164h101l77 -164h-68z" />
    <glyph glyph-name="Iacute" unicode="&#xcd;" horiz-adv-x="257" 
d="M81 0v724h95v-724h-95zM248 959l-110 -164h-68l77 164h101z" />
    <glyph glyph-name="Icircumflex" unicode="&#xce;" horiz-adv-x="257" 
d="M81 0v724h95v-724h-95zM-33 795l113 164h96l113 -164h-75l-86 105l-86 -105h-75z" />
    <glyph glyph-name="Idieresis" unicode="&#xcf;" horiz-adv-x="257" 
d="M81 0v724h95v-724h-95zM171 877q0 23 16.5 39t38.5 16t38.5 -16t16.5 -39t-16.5 -39t-38.5 -16t-38.5 16t-16.5 39zM-25 877q0 23 16.5 39t38.5 16t38.5 -16t16.5 -39t-16.5 -39t-38.5 -16t-38.5 16t-16.5 39z" />
    <glyph glyph-name="Eth" unicode="&#xd0;" horiz-adv-x="746" 
d="M3 330v78h89v316h199q158 0 256 -59q77 -47 119.5 -126t42.5 -174q0 -90 -37.5 -166.5t-106.5 -125.5q-104 -73 -298 -73h-175v330h-89zM187 86h95q140 0 215 48q53 34 85 94t32 134q0 75 -32 133.5t-84 92.5q-75 50 -218 50h-93v-230h156v-78h-156v-244z" />
    <glyph glyph-name="Ntilde" unicode="&#xd1;" horiz-adv-x="772" 
d="M173 0h-92v724h90l303 -402q59 -78 125 -169l2 1q-2 126 -2 206v364h92v-724h-90l-303 402q-59 78 -125 169l-2 -1q2 -126 2 -206v-364zM379 842q-46 23 -67 23q-39 0 -81 -48l-2 1v78q31 43 83 43q33 0 81 -24q46 -23 67 -23q39 0 81 48l2 -1v-78q-31 -43 -83 -43
q-33 0 -81 24z" />
    <glyph glyph-name="Ograve" unicode="&#xd2;" horiz-adv-x="816" 
d="M40 362q0 158 105.5 265.5t262.5 107.5t262.5 -107.5t105.5 -265.5t-105.5 -265.5t-262.5 -107.5t-262.5 107.5t-105.5 265.5zM135 362q0 -120 77.5 -202.5t195.5 -82.5t195.5 82.5t77.5 202.5t-77.5 202.5t-195.5 82.5t-195.5 -82.5t-77.5 -202.5zM398 795l-110 164h101
l77 -164h-68z" />
    <glyph glyph-name="Oacute" unicode="&#xd3;" horiz-adv-x="816" 
d="M40 362q0 158 105.5 265.5t262.5 107.5t262.5 -107.5t105.5 -265.5t-105.5 -265.5t-262.5 -107.5t-262.5 107.5t-105.5 265.5zM135 362q0 -120 77.5 -202.5t195.5 -82.5t195.5 82.5t77.5 202.5t-77.5 202.5t-195.5 82.5t-195.5 -82.5t-77.5 -202.5zM528 959l-110 -164
h-68l77 164h101z" />
    <glyph glyph-name="Ocircumflex" unicode="&#xd4;" horiz-adv-x="816" 
d="M40 362q0 158 105.5 265.5t262.5 107.5t262.5 -107.5t105.5 -265.5t-105.5 -265.5t-262.5 -107.5t-262.5 107.5t-105.5 265.5zM135 362q0 -120 77.5 -202.5t195.5 -82.5t195.5 82.5t77.5 202.5t-77.5 202.5t-195.5 82.5t-195.5 -82.5t-77.5 -202.5zM247 795l113 164h96
l113 -164h-75l-86 105l-86 -105h-75z" />
    <glyph glyph-name="Otilde" unicode="&#xd5;" horiz-adv-x="816" 
d="M40 362q0 158 105.5 265.5t262.5 107.5t262.5 -107.5t105.5 -265.5t-105.5 -265.5t-262.5 -107.5t-262.5 107.5t-105.5 265.5zM135 362q0 -120 77.5 -202.5t195.5 -82.5t195.5 82.5t77.5 202.5t-77.5 202.5t-195.5 82.5t-195.5 -82.5t-77.5 -202.5zM401 842
q-46 23 -67 23q-39 0 -81 -48l-2 1v78q31 43 83 43q33 0 81 -24q46 -23 67 -23q39 0 81 48l2 -1v-78q-31 -43 -83 -43q-33 0 -81 24z" />
    <glyph glyph-name="Odieresis" unicode="&#xd6;" horiz-adv-x="816" 
d="M40 362q0 158 105.5 265.5t262.5 107.5t262.5 -107.5t105.5 -265.5t-105.5 -265.5t-262.5 -107.5t-262.5 107.5t-105.5 265.5zM135 362q0 -120 77.5 -202.5t195.5 -82.5t195.5 82.5t77.5 202.5t-77.5 202.5t-195.5 82.5t-195.5 -82.5t-77.5 -202.5zM451 877q0 23 16.5 39
t38.5 16t38.5 -16t16.5 -39t-16.5 -39t-38.5 -16t-38.5 16t-16.5 39zM255 877q0 23 16.5 39t38.5 16t38.5 -16t16.5 -39t-16.5 -39t-38.5 -16t-38.5 16t-16.5 39z" />
    <glyph glyph-name="multiply" unicode="&#xd7;" horiz-adv-x="588" 
d="M136 154l-51 51l158 158l-158 158l51 51l158 -158l158 158l51 -51l-158 -158l158 -158l-51 -51l-158 158z" />
    <glyph glyph-name="Oslash" unicode="&#xd8;" horiz-adv-x="816" 
d="M135 362q0 -111 66 -190l363 426q-68 49 -156 49q-118 0 -195.5 -82.5t-77.5 -202.5zM40 362q0 158 105.5 265.5t262.5 107.5q123 0 215 -68l62 73l52 -44l-62 -73q101 -107 101 -261q0 -158 -105.5 -265.5t-262.5 -107.5q-123 0 -215 68l-62 -73l-52 44l62 73
q-101 107 -101 261zM681 362q0 111 -66 190l-363 -426q68 -49 156 -49q118 0 195.5 82.5t77.5 202.5z" />
    <glyph glyph-name="Ugrave" unicode="&#xd9;" horiz-adv-x="730" 
d="M121 102q-48 74 -48 239v383h95v-373q0 -134 28 -187q46 -87 172 -87q124 0 170 87q27 50 27 183v377h92v-372q0 -90 -9.5 -148t-38.5 -102q-35 -53 -98.5 -83t-146.5 -30t-145.5 30t-97.5 83zM355 795l-110 164h101l77 -164h-68z" />
    <glyph glyph-name="Uacute" unicode="&#xda;" horiz-adv-x="730" 
d="M121 102q-48 74 -48 239v383h95v-373q0 -134 28 -187q46 -87 172 -87q124 0 170 87q27 50 27 183v377h92v-372q0 -90 -9.5 -148t-38.5 -102q-35 -53 -98.5 -83t-146.5 -30t-145.5 30t-97.5 83zM485 959l-110 -164h-68l77 164h101z" />
    <glyph glyph-name="Ucircumflex" unicode="&#xdb;" horiz-adv-x="730" 
d="M121 102q-48 74 -48 239v383h95v-373q0 -134 28 -187q46 -87 172 -87q124 0 170 87q27 50 27 183v377h92v-372q0 -90 -9.5 -148t-38.5 -102q-35 -53 -98.5 -83t-146.5 -30t-145.5 30t-97.5 83zM204 795l113 164h96l113 -164h-75l-86 105l-86 -105h-75z" />
    <glyph glyph-name="Udieresis" unicode="&#xdc;" horiz-adv-x="730" 
d="M121 102q-48 74 -48 239v383h95v-373q0 -134 28 -187q46 -87 172 -87q124 0 170 87q27 50 27 183v377h92v-372q0 -90 -9.5 -148t-38.5 -102q-35 -53 -98.5 -83t-146.5 -30t-145.5 30t-97.5 83zM408 877q0 23 16 39t39 16t39 -16t16 -39t-16 -39t-39 -16t-39 16t-16 39z
M212 877q0 23 16 39t39 16t39 -16t16 -39t-16 -39t-39 -16t-39 16t-16 39z" />
    <glyph glyph-name="Yacute" unicode="&#xdd;" horiz-adv-x="655" 
d="M281 0v327l-279 397h110l123 -177q70 -102 94 -138h2q29 44 94 139l122 176h106l-277 -396v-328h-95zM450 959l-110 -164h-68l77 164h101z" />
    <glyph glyph-name="Thorn" unicode="&#xde;" horiz-adv-x="622" 
d="M81 0v724h95v-141h94q146 0 214 -38q105 -58 105 -179q0 -60 -26.5 -106.5t-71.5 -73.5q-43 -26 -99 -33.5t-141 -7.5h-75v-145h-95zM176 228h87q70 0 107.5 5t65.5 22q58 35 58 107q0 78 -67 112q-46 23 -165 23h-86v-269z" />
    <glyph glyph-name="germandbls" unicode="&#xdf;" horiz-adv-x="624" 
d="M79 0v576q0 100 57 150q57 49 161 49q105 0 163 -47q57 -46 57 -138q0 -56 -19 -106q-59 -5 -105 -22q-63 -23 -63 -71q0 -9 1.5 -16t5.5 -13.5t6.5 -11t11 -9.5t12.5 -8t15.5 -8t16.5 -7t20.5 -7.5t20.5 -7.5q68 -26 106 -59.5t38 -98.5q0 -74 -52 -115t-132 -41
q-91 0 -152 37v96q31 -23 75 -37.5t80 -14.5q39 0 64.5 18t25.5 54q0 34 -26 51t-96 42q-64 23 -97.5 57.5t-33.5 90.5q0 81 72 126q46 29 111 40q4 22 4 41q0 49 -32 77q-30 26 -97 26t-98 -28t-31 -89v-576h-90z" />
    <glyph glyph-name="agrave" unicode="&#xe0;" horiz-adv-x="532" 
d="M215 -11q-71 0 -117 35q-52 39 -52 109q0 78 65 120q51 33 138 33q53 0 105 -13v41q0 54 -28 81q-30 27 -91 27q-84 0 -151 -49v88q69 42 164 42q98 0 147 -45q49 -44 49 -129v-209q0 -52 38 -52q15 0 29 7v-75q-22 -9 -48 -9q-67 0 -95 52h-2q-24 -22 -64.5 -38
t-86.5 -16zM231 69q69 0 123 43v92q-44 13 -96 13t-86.5 -18t-34.5 -58q0 -35 26 -53.5t68 -18.5zM254 563l-110 164h101l77 -164h-68z" />
    <glyph glyph-name="aacute" unicode="&#xe1;" horiz-adv-x="532" 
d="M215 -11q-71 0 -117 35q-52 39 -52 109q0 78 65 120q51 33 138 33q53 0 105 -13v41q0 54 -28 81q-30 27 -91 27q-84 0 -151 -49v88q69 42 164 42q98 0 147 -45q49 -44 49 -129v-209q0 -52 38 -52q15 0 29 7v-75q-22 -9 -48 -9q-67 0 -95 52h-2q-24 -22 -64.5 -38
t-86.5 -16zM231 69q69 0 123 43v92q-44 13 -96 13t-86.5 -18t-34.5 -58q0 -35 26 -53.5t68 -18.5zM384 727l-110 -164h-68l77 164h101z" />
    <glyph glyph-name="acircumflex" unicode="&#xe2;" horiz-adv-x="532" 
d="M215 -11q-71 0 -117 35q-52 39 -52 109q0 78 65 120q51 33 138 33q53 0 105 -13v41q0 54 -28 81q-30 27 -91 27q-84 0 -151 -49v88q69 42 164 42q98 0 147 -45q49 -44 49 -129v-209q0 -52 38 -52q15 0 29 7v-75q-22 -9 -48 -9q-67 0 -95 52h-2q-24 -22 -64.5 -38
t-86.5 -16zM231 69q69 0 123 43v92q-44 13 -96 13t-86.5 -18t-34.5 -58q0 -35 26 -53.5t68 -18.5zM103 563l113 164h96l113 -164h-75l-86 105l-86 -105h-75z" />
    <glyph glyph-name="atilde" unicode="&#xe3;" horiz-adv-x="532" 
d="M215 -11q-71 0 -117 35q-52 39 -52 109q0 78 65 120q51 33 138 33q53 0 105 -13v41q0 54 -28 81q-30 27 -91 27q-84 0 -151 -49v88q69 42 164 42q98 0 147 -45q49 -44 49 -129v-209q0 -52 38 -52q15 0 29 7v-75q-22 -9 -48 -9q-67 0 -95 52h-2q-24 -22 -64.5 -38
t-86.5 -16zM231 69q69 0 123 43v92q-44 13 -96 13t-86.5 -18t-34.5 -58q0 -35 26 -53.5t68 -18.5zM257 610q-46 23 -67 23q-39 0 -81 -48l-2 1v78q31 43 83 43q33 0 81 -24q46 -23 67 -23q39 0 81 48l2 -1v-78q-31 -43 -83 -43q-33 0 -81 24z" />
    <glyph glyph-name="adieresis" unicode="&#xe4;" horiz-adv-x="532" 
d="M215 -11q-71 0 -117 35q-52 39 -52 109q0 78 65 120q51 33 138 33q53 0 105 -13v41q0 54 -28 81q-30 27 -91 27q-84 0 -151 -49v88q69 42 164 42q98 0 147 -45q49 -44 49 -129v-209q0 -52 38 -52q15 0 29 7v-75q-22 -9 -48 -9q-67 0 -95 52h-2q-24 -22 -64.5 -38
t-86.5 -16zM231 69q69 0 123 43v92q-44 13 -96 13t-86.5 -18t-34.5 -58q0 -35 26 -53.5t68 -18.5zM307 645q0 23 16.5 39t38.5 16t38.5 -16t16.5 -39t-16.5 -39t-38.5 -16t-38.5 16t-16.5 39zM111 645q0 23 16.5 39t38.5 16t38.5 -16t16.5 -39t-16.5 -39t-38.5 -16t-38.5 16
t-16.5 39z" />
    <glyph glyph-name="aring" unicode="&#xe5;" horiz-adv-x="532" 
d="M215 -11q-71 0 -117 35q-52 39 -52 109q0 78 65 120q51 33 138 33q53 0 105 -13v41q0 54 -28 81q-30 27 -91 27q-84 0 -151 -49v88q69 42 164 42q98 0 147 -45q49 -44 49 -129v-209q0 -52 38 -52q15 0 29 7v-75q-22 -9 -48 -9q-67 0 -95 52h-2q-24 -22 -64.5 -38
t-86.5 -16zM231 69q69 0 123 43v92q-44 13 -96 13t-86.5 -18t-34.5 -58q0 -35 26 -53.5t68 -18.5zM264 551q-50 0 -83.5 32.5t-33.5 81.5t33.5 81.5t83.5 32.5t83.5 -32.5t33.5 -81.5t-33.5 -81.5t-83.5 -32.5zM264 601q28 0 45.5 18.5t17.5 45.5t-17.5 45.5t-45.5 18.5
t-45.5 -18.5t-17.5 -45.5t17.5 -45.5t45.5 -18.5z" />
    <glyph glyph-name="ae" unicode="&#xe6;" horiz-adv-x="858" 
d="M808 220h-370q10 -71 58 -110.5t120 -39.5q89 0 168 61v-96q-72 -46 -174 -46q-126 0 -200 83q-84 -83 -194 -83q-71 0 -117 35q-53 40 -53 110q0 77 65 119q51 33 138 33q48 0 99 -12v39q0 54 -28 81q-29 27 -89 27q-82 0 -147 -49v89q68 42 158 42q131 0 173 -80h2
q69 80 175 80q93 0 156 -64t63 -173q0 -28 -3 -46zM589 422q-54 0 -97 -33.5t-53 -97.5h285q-2 52 -38.5 91.5t-96.5 39.5zM258 217q-52 0 -86.5 -18.5t-34.5 -58.5q0 -35 26 -53t67 -18q84 0 144 60q-16 36 -22 75q-44 13 -94 13z" />
    <glyph glyph-name="ccedilla" unicode="&#xe7;" horiz-adv-x="510" 
d="M239 -86l24 79q-97 14 -157.5 83.5t-60.5 166.5q0 113 78.5 186.5t194.5 73.5q73 0 133 -31v-93q-66 42 -137 42q-79 0 -128.5 -51t-49.5 -127t50.5 -124t130.5 -48q81 0 142 48v-96q-62 -34 -149 -34l-10 -32q89 -20 89 -90q0 -40 -28.5 -64t-76.5 -24q-44 0 -80 18
l15 51q38 -19 64 -19q21 0 34.5 9t13.5 26q0 45 -92 50z" />
    <glyph glyph-name="egrave" unicode="&#xe8;" horiz-adv-x="563" 
d="M511 220h-376q10 -71 59 -110.5t123 -39.5q89 0 170 61v-96q-72 -46 -176 -46q-116 0 -191 71t-75 186q0 113 71.5 185t173.5 72q95 0 159.5 -63.5t64.5 -174.5q0 -27 -3 -45zM288 422q-53 0 -96.5 -33.5t-54.5 -97.5h290q-5 67 -46 99t-93 32zM274 563l-110 164h101
l77 -164h-68z" />
    <glyph glyph-name="eacute" unicode="&#xe9;" horiz-adv-x="563" 
d="M511 220h-376q10 -71 59 -110.5t123 -39.5q89 0 170 61v-96q-72 -46 -176 -46q-116 0 -191 71t-75 186q0 113 71.5 185t173.5 72q95 0 159.5 -63.5t64.5 -174.5q0 -27 -3 -45zM288 422q-53 0 -96.5 -33.5t-54.5 -97.5h290q-5 67 -46 99t-93 32zM404 727l-110 -164h-68
l77 164h101z" />
    <glyph glyph-name="ecircumflex" unicode="&#xea;" horiz-adv-x="563" 
d="M511 220h-376q10 -71 59 -110.5t123 -39.5q89 0 170 61v-96q-72 -46 -176 -46q-116 0 -191 71t-75 186q0 113 71.5 185t173.5 72q95 0 159.5 -63.5t64.5 -174.5q0 -27 -3 -45zM288 422q-53 0 -96.5 -33.5t-54.5 -97.5h290q-5 67 -46 99t-93 32zM123 563l113 164h96
l113 -164h-75l-86 105l-86 -105h-75z" />
    <glyph glyph-name="edieresis" unicode="&#xeb;" horiz-adv-x="563" 
d="M511 220h-376q10 -71 59 -110.5t123 -39.5q89 0 170 61v-96q-72 -46 -176 -46q-116 0 -191 71t-75 186q0 113 71.5 185t173.5 72q95 0 159.5 -63.5t64.5 -174.5q0 -27 -3 -45zM288 422q-53 0 -96.5 -33.5t-54.5 -97.5h290q-5 67 -46 99t-93 32zM327 645q0 23 16.5 39
t38.5 16t38.5 -16t16.5 -39t-16.5 -39t-38.5 -16t-38.5 16t-16.5 39zM131 645q0 23 16.5 39t38.5 16t38.5 -16t16.5 -39t-16.5 -39t-38.5 -16t-38.5 16t-16.5 39z" />
    <glyph glyph-name="igrave" unicode="&#xec;" horiz-adv-x="248" 
d="M79 0v492h90v-492h-90zM114 563l-110 164h101l77 -164h-68z" />
    <glyph glyph-name="iacute" unicode="&#xed;" horiz-adv-x="248" 
d="M79 0v492h90v-492h-90zM244 727l-110 -164h-68l77 164h101z" />
    <glyph glyph-name="icircumflex" unicode="&#xee;" horiz-adv-x="248" 
d="M79 0v492h90v-492h-90zM-37 563l113 164h96l113 -164h-75l-86 105l-86 -105h-75z" />
    <glyph glyph-name="idieresis" unicode="&#xef;" horiz-adv-x="248" 
d="M79 0v492h90v-492h-90zM167 645q0 23 16.5 39t38.5 16t38.5 -16t16.5 -39t-16.5 -39t-38.5 -16t-38.5 16t-16.5 39zM-29 645q0 23 16.5 39t38.5 16t38.5 -16t16.5 -39t-16.5 -39t-38.5 -16t-38.5 16t-16.5 39z" />
    <glyph glyph-name="eth" unicode="&#xf0;" horiz-adv-x="580" 
d="M148 525l-13 62l113 43q-45 32 -104 60l54 60q80 -41 136 -87l106 40l13 -62l-68 -26q77 -79 116.5 -173t39.5 -186q0 -129 -72 -198t-182 -69q-112 0 -181 69.5t-69 176.5q0 106 67 177t169 71q85 0 136 -48l2 2q-35 80 -107 147zM127 240q0 -73 45 -121t117 -48
q74 0 118 49.5t44 121.5q0 75 -47.5 119t-116.5 44q-71 0 -115.5 -46.5t-44.5 -118.5z" />
    <glyph glyph-name="ntilde" unicode="&#xf1;" horiz-adv-x="592" 
d="M79 0v492h90v-62l2 -1q74 74 172 74q83 0 131 -54q41 -47 41 -145v-304h-90v287q0 73 -23 100q-27 32 -79 32q-42 0 -84.5 -23t-69.5 -59v-337h-90zM289 610q-46 23 -67 23q-39 0 -81 -48l-2 1v78q31 43 83 43q33 0 81 -24q46 -23 67 -23q39 0 81 48l2 -1v-78
q-31 -43 -83 -43q-33 0 -81 24z" />
    <glyph glyph-name="ograve" unicode="&#xf2;" horiz-adv-x="610" 
d="M45 246q0 109 74.5 183t185.5 74t185.5 -74t74.5 -183t-74.5 -183t-185.5 -74t-185.5 74t-74.5 183zM135 246q0 -75 48.5 -125t121.5 -50t121.5 50t48.5 125t-48.5 125t-121.5 50t-121.5 -50t-48.5 -125zM295 563l-110 164h101l77 -164h-68z" />
    <glyph glyph-name="oacute" unicode="&#xf3;" horiz-adv-x="610" 
d="M45 246q0 109 74.5 183t185.5 74t185.5 -74t74.5 -183t-74.5 -183t-185.5 -74t-185.5 74t-74.5 183zM135 246q0 -75 48.5 -125t121.5 -50t121.5 50t48.5 125t-48.5 125t-121.5 50t-121.5 -50t-48.5 -125zM425 727l-110 -164h-68l77 164h101z" />
    <glyph glyph-name="ocircumflex" unicode="&#xf4;" horiz-adv-x="610" 
d="M45 246q0 109 74.5 183t185.5 74t185.5 -74t74.5 -183t-74.5 -183t-185.5 -74t-185.5 74t-74.5 183zM135 246q0 -75 48.5 -125t121.5 -50t121.5 50t48.5 125t-48.5 125t-121.5 50t-121.5 -50t-48.5 -125zM144 563l113 164h96l113 -164h-75l-86 105l-86 -105h-75z" />
    <glyph glyph-name="otilde" unicode="&#xf5;" horiz-adv-x="610" 
d="M45 246q0 109 74.5 183t185.5 74t185.5 -74t74.5 -183t-74.5 -183t-185.5 -74t-185.5 74t-74.5 183zM135 246q0 -75 48.5 -125t121.5 -50t121.5 50t48.5 125t-48.5 125t-121.5 50t-121.5 -50t-48.5 -125zM298 610q-46 23 -67 23q-39 0 -81 -48l-2 1v78q31 43 83 43
q33 0 81 -24q46 -23 67 -23q39 0 81 48l2 -1v-78q-31 -43 -83 -43q-33 0 -81 24z" />
    <glyph glyph-name="odieresis" unicode="&#xf6;" horiz-adv-x="610" 
d="M45 246q0 109 74.5 183t185.5 74t185.5 -74t74.5 -183t-74.5 -183t-185.5 -74t-185.5 74t-74.5 183zM135 246q0 -75 48.5 -125t121.5 -50t121.5 50t48.5 125t-48.5 125t-121.5 50t-121.5 -50t-48.5 -125zM348 645q0 23 16 39t39 16t39 -16t16 -39t-16 -39t-39 -16t-39 16
t-16 39zM152 645q0 23 16 39t39 16t39 -16t16 -39t-16 -39t-39 -16t-39 16t-16 39z" />
    <glyph glyph-name="divide" unicode="&#xf7;" horiz-adv-x="588" 
d="M238 576q0 23 16.5 39.5t39.5 16.5t39.5 -16.5t16.5 -39.5t-16.5 -39.5t-39.5 -16.5t-39.5 16.5t-16.5 39.5zM53 326v72h482v-72h-482zM238 148q0 23 16.5 39.5t39.5 16.5t39.5 -16.5t16.5 -39.5t-16.5 -39.5t-39.5 -16.5t-39.5 16.5t-16.5 39.5z" />
    <glyph glyph-name="oslash" unicode="&#xf8;" horiz-adv-x="610" 
d="M135 246q0 -61 33 -107l226 258q-42 24 -89 24q-73 0 -121.5 -50t-48.5 -125zM45 246q0 109 74.5 183t185.5 74q81 0 145 -42l50 57l49 -42l-49 -56q65 -71 65 -174q0 -109 -74.5 -183t-185.5 -74q-81 0 -145 42l-50 -57l-49 42l49 56q-65 71 -65 174zM475 246
q0 61 -33 107l-226 -258q42 -24 89 -24q73 0 121.5 50t48.5 125z" />
    <glyph glyph-name="ugrave" unicode="&#xf9;" horiz-adv-x="592" 
d="M117 44q-40 47 -40 147v301h90v-284q0 -74 24 -102q27 -34 78 -34q43 0 84 24t70 60v336h90v-492h-90v62l-2 1q-74 -74 -170 -74q-86 0 -134 55zM286 563l-110 164h101l77 -164h-68z" />
    <glyph glyph-name="uacute" unicode="&#xfa;" horiz-adv-x="592" 
d="M117 44q-40 47 -40 147v301h90v-284q0 -74 24 -102q27 -34 78 -34q43 0 84 24t70 60v336h90v-492h-90v62l-2 1q-74 -74 -170 -74q-86 0 -134 55zM416 727l-110 -164h-68l77 164h101z" />
    <glyph glyph-name="ucircumflex" unicode="&#xfb;" horiz-adv-x="592" 
d="M117 44q-40 47 -40 147v301h90v-284q0 -74 24 -102q27 -34 78 -34q43 0 84 24t70 60v336h90v-492h-90v62l-2 1q-74 -74 -170 -74q-86 0 -134 55zM135 563l113 164h96l113 -164h-75l-86 105l-86 -105h-75z" />
    <glyph glyph-name="udieresis" unicode="&#xfc;" horiz-adv-x="592" 
d="M117 44q-40 47 -40 147v301h90v-284q0 -74 24 -102q27 -34 78 -34q43 0 84 24t70 60v336h90v-492h-90v62l-2 1q-74 -74 -170 -74q-86 0 -134 55zM339 645q0 23 16.5 39t38.5 16t38.5 -16t16.5 -39t-16.5 -39t-38.5 -16t-38.5 16t-16.5 39zM143 645q0 23 16.5 39t38.5 16
t38.5 -16t16.5 -39t-16.5 -39t-38.5 -16t-38.5 16t-16.5 39z" />
    <glyph glyph-name="yacute" unicode="&#xfd;" horiz-adv-x="550" 
d="M192 -220h-98l133 273l-205 439h100l86 -186q36 -79 67 -148h2q44 98 67 148l86 186h95zM396 727l-110 -164h-68l77 164h101z" />
    <glyph glyph-name="thorn" unicode="&#xfe;" horiz-adv-x="596" 
d="M79 -220v984h90v-302l2 -1q63 42 140 42q101 0 170 -71t69 -182q0 -115 -74 -188t-185 -73q-59 0 -120 25l-2 -1v-233h-90zM169 379v-278q59 -33 124 -33q74 0 120 49.5t46 126.5t-44.5 127.5t-117.5 50.5q-70 0 -128 -43z" />
    <glyph glyph-name="ydieresis" unicode="&#xff;" horiz-adv-x="550" 
d="M192 -220h-98l133 273l-205 439h100l86 -186q36 -79 67 -148h2q44 98 67 148l86 186h95zM319 645q0 23 16.5 39t38.5 16t38.5 -16t16.5 -39t-16.5 -39t-38.5 -16t-38.5 16t-16.5 39zM123 645q0 23 16.5 39t38.5 16t38.5 -16t16.5 -39t-16.5 -39t-38.5 -16t-38.5 16
t-16.5 39z" />
    <glyph glyph-name="Amacron" unicode="&#x100;" horiz-adv-x="698" 
d="M5 0l298 724h91l299 -724h-102l-81 202h-326l-82 -202h-97zM276 432l-59 -147h260l-59 150q-38 95 -69 179h-2q-29 -79 -71 -182zM212 843v68h274v-68h-274z" />
    <glyph glyph-name="amacron" unicode="&#x101;" horiz-adv-x="532" 
d="M215 -11q-71 0 -117 35q-52 39 -52 109q0 78 65 120q51 33 138 33q53 0 105 -13v41q0 54 -28 81q-30 27 -91 27q-84 0 -151 -49v88q69 42 164 42q98 0 147 -45q49 -44 49 -129v-209q0 -52 38 -52q15 0 29 7v-75q-22 -9 -48 -9q-67 0 -95 52h-2q-24 -22 -64.5 -38
t-86.5 -16zM231 69q69 0 123 43v92q-44 13 -96 13t-86.5 -18t-34.5 -58q0 -35 26 -53.5t68 -18.5zM127 611v68h274v-68h-274z" />
    <glyph glyph-name="Abreve" unicode="&#x102;" horiz-adv-x="698" 
d="M5 0l298 724h91l299 -724h-102l-81 202h-326l-82 -202h-97zM276 432l-59 -147h260l-59 150q-38 95 -69 179h-2q-29 -79 -71 -182zM349 804q-66 0 -101.5 41t-37.5 107h58q8 -92 81 -92t81 92h58q-2 -66 -37.5 -107t-101.5 -41z" />
    <glyph glyph-name="abreve" unicode="&#x103;" horiz-adv-x="532" 
d="M215 -11q-71 0 -117 35q-52 39 -52 109q0 78 65 120q51 33 138 33q53 0 105 -13v41q0 54 -28 81q-30 27 -91 27q-84 0 -151 -49v88q69 42 164 42q98 0 147 -45q49 -44 49 -129v-209q0 -52 38 -52q15 0 29 7v-75q-22 -9 -48 -9q-67 0 -95 52h-2q-24 -22 -64.5 -38
t-86.5 -16zM231 69q69 0 123 43v92q-44 13 -96 13t-86.5 -18t-34.5 -58q0 -35 26 -53.5t68 -18.5zM264 572q-66 0 -101.5 41t-37.5 107h58q8 -92 81 -92t81 92h58q-2 -66 -37.5 -107t-101.5 -41z" />
    <glyph glyph-name="Aogonek" unicode="&#x104;" horiz-adv-x="698" 
d="M5 0l298 724h91l299 -724q-48 -22 -74 -54t-26 -63q0 -51 51 -51q22 0 41 6v-60q-27 -9 -56 -9q-51 0 -81.5 27.5t-30.5 72.5q0 36 20.5 71.5t52.5 60.5l-80 201h-326l-82 -202h-97zM276 432l-59 -147h260l-59 150q-38 95 -69 179h-2q-29 -79 -71 -182z" />
    <glyph glyph-name="aogonek" unicode="&#x105;" horiz-adv-x="532" 
d="M215 -11q-71 0 -117 35q-52 39 -52 109q0 78 65 120q51 33 138 33q53 0 105 -13v41q0 54 -28 81q-30 27 -91 27q-84 0 -151 -49v88q69 42 164 42q98 0 147 -45q49 -44 49 -129v-209q0 -52 38 -52q15 0 29 7v-75q-49 -9 -81.5 -45.5t-32.5 -73.5q0 -22 13.5 -35.5
t37.5 -13.5q20 0 41 6v-60q-29 -9 -57 -9q-50 0 -80.5 28t-30.5 71q0 38 21.5 75.5t58.5 62.5v2q-21 12 -33 35h-2q-24 -22 -64.5 -38t-86.5 -16zM231 69q69 0 123 43v92q-44 13 -96 13t-86.5 -18t-34.5 -58q0 -35 26 -53.5t68 -18.5z" />
    <glyph glyph-name="Cacute" unicode="&#x106;" horiz-adv-x="681" 
d="M41 360q0 158 105 266.5t272 108.5q113 0 204 -51v-104q-90 67 -205 67q-123 0 -202 -81.5t-79 -203.5t80.5 -203.5t208.5 -81.5q118 0 208 73v-105q-88 -56 -213 -56q-164 0 -271.5 105.5t-107.5 265.5zM560 959l-110 -164h-68l77 164h101z" />
    <glyph glyph-name="cacute" unicode="&#x107;" horiz-adv-x="510" 
d="M459 119v-96q-62 -34 -147 -34q-117 0 -192 72t-75 182q0 113 78.5 186.5t194.5 73.5q73 0 133 -31v-93q-66 42 -137 42q-79 0 -128.5 -51t-49.5 -127t50.5 -124t130.5 -48q81 0 142 48zM447 727l-110 -164h-68l77 164h101z" />
    <glyph glyph-name="Ccircumflex" unicode="&#x108;" horiz-adv-x="681" 
d="M41 360q0 158 105 266.5t272 108.5q113 0 204 -51v-104q-90 67 -205 67q-123 0 -202 -81.5t-79 -203.5t80.5 -203.5t208.5 -81.5q118 0 208 73v-105q-88 -56 -213 -56q-164 0 -271.5 105.5t-107.5 265.5zM229 795l113 164h96l113 -164h-75l-86 105l-86 -105h-75z" />
    <glyph glyph-name="ccircumflex" unicode="&#x109;" horiz-adv-x="510" 
d="M459 119v-96q-62 -34 -147 -34q-117 0 -192 72t-75 182q0 113 78.5 186.5t194.5 73.5q73 0 133 -31v-93q-66 42 -137 42q-79 0 -128.5 -51t-49.5 -127t50.5 -124t130.5 -48q81 0 142 48zM130 563l113 164h96l113 -164h-75l-86 105l-86 -105h-75z" />
    <glyph glyph-name="Cdotaccent" unicode="&#x10a;" horiz-adv-x="681" 
d="M41 360q0 158 105 266.5t272 108.5q113 0 204 -51v-104q-90 67 -205 67q-123 0 -202 -81.5t-79 -203.5t80.5 -203.5t208.5 -81.5q118 0 208 73v-105q-88 -56 -213 -56q-164 0 -271.5 105.5t-107.5 265.5zM391 822q-23 0 -39 16t-16 39t16 39t39 16t39 -16t16 -39t-16 -39
t-39 -16z" />
    <glyph glyph-name="cdotaccent" unicode="&#x10b;" horiz-adv-x="510" 
d="M459 119v-96q-62 -34 -147 -34q-117 0 -192 72t-75 182q0 113 78.5 186.5t194.5 73.5q73 0 133 -31v-93q-66 42 -137 42q-79 0 -128.5 -51t-49.5 -127t50.5 -124t130.5 -48q81 0 142 48zM292 590q-23 0 -39 16t-16 39t16 39t39 16t39 -16t16 -39t-16 -39t-39 -16z" />
    <glyph glyph-name="Ccaron" unicode="&#x10c;" horiz-adv-x="681" 
d="M41 360q0 158 105 266.5t272 108.5q113 0 204 -51v-104q-90 67 -205 67q-123 0 -202 -81.5t-79 -203.5t80.5 -203.5t208.5 -81.5q118 0 208 73v-105q-88 -56 -213 -56q-164 0 -271.5 105.5t-107.5 265.5zM551 959l-113 -164h-96l-113 164h75l86 -105l86 105h75z" />
    <glyph glyph-name="ccaron" unicode="&#x10d;" horiz-adv-x="510" 
d="M459 119v-96q-62 -34 -147 -34q-117 0 -192 72t-75 182q0 113 78.5 186.5t194.5 73.5q73 0 133 -31v-93q-66 42 -137 42q-79 0 -128.5 -51t-49.5 -127t50.5 -124t130.5 -48q81 0 142 48zM452 727l-113 -164h-96l-113 164h75l86 -105l86 105h75z" />
    <glyph glyph-name="Dcaron" unicode="&#x10e;" horiz-adv-x="735" 
d="M81 0v724h199q158 0 256 -59q77 -47 119.5 -126t42.5 -174q0 -90 -37.5 -166.5t-106.5 -125.5q-104 -73 -298 -73h-175zM176 86h95q140 0 215 48q53 34 85 94t32 134q0 75 -32 133.5t-84 92.5q-75 50 -218 50h-93v-552zM498 959l-113 -164h-96l-113 164h75l86 -105
l86 105h75z" />
    <glyph glyph-name="dcaron" unicode="&#x10f;" horiz-adv-x="692" 
d="M47 238q0 114 73 189.5t188 75.5q59 0 118 -26l2 1v286h90v-764h-90v30l-2 1q-60 -42 -138 -42q-102 0 -171.5 69t-69.5 180zM138 243q0 -75 44 -124.5t118 -49.5q67 0 128 42v281q-60 31 -121 31q-76 0 -122.5 -51t-46.5 -129zM632 764h88l-76 -218h-65z" />
    <glyph glyph-name="Dcroat" unicode="&#x110;" horiz-adv-x="746" 
d="M3 330v78h89v316h199q158 0 256 -59q77 -47 119.5 -126t42.5 -174q0 -90 -37.5 -166.5t-106.5 -125.5q-104 -73 -298 -73h-175v330h-89zM187 86h95q140 0 215 48q53 34 85 94t32 134q0 75 -32 133.5t-84 92.5q-75 50 -218 50h-93v-230h156v-78h-156v-244z" />
    <glyph glyph-name="dcroat" unicode="&#x111;" horiz-adv-x="597" 
d="M256 587v73h172v104h90v-104h69v-73h-69v-587h-90v30l-2 1q-60 -42 -138 -42q-102 0 -171.5 69t-69.5 180q0 114 73 189.5t188 75.5q59 0 118 -26l2 1v109h-172zM138 243q0 -75 44 -124.5t118 -49.5q67 0 128 42v281q-60 31 -121 31q-76 0 -122.5 -51t-46.5 -129z" />
    <glyph glyph-name="Emacron" unicode="&#x112;" horiz-adv-x="551" 
d="M81 0v724h418v-86h-323v-220h283v-83h-283v-249h332v-86h-427zM152 843v68h274v-68h-274z" />
    <glyph glyph-name="emacron" unicode="&#x113;" horiz-adv-x="563" 
d="M511 220h-376q10 -71 59 -110.5t123 -39.5q89 0 170 61v-96q-72 -46 -176 -46q-116 0 -191 71t-75 186q0 113 71.5 185t173.5 72q95 0 159.5 -63.5t64.5 -174.5q0 -27 -3 -45zM288 422q-53 0 -96.5 -33.5t-54.5 -97.5h290q-5 67 -46 99t-93 32zM147 611v68h274v-68h-274z
" />
    <glyph glyph-name="Ebreve" unicode="&#x114;" horiz-adv-x="551" 
d="M81 0v724h418v-86h-323v-220h283v-83h-283v-249h332v-86h-427zM289 804q-66 0 -101.5 41t-37.5 107h58q8 -92 81 -92t81 92h58q-2 -66 -37.5 -107t-101.5 -41z" />
    <glyph glyph-name="ebreve" unicode="&#x115;" horiz-adv-x="563" 
d="M511 220h-376q10 -71 59 -110.5t123 -39.5q89 0 170 61v-96q-72 -46 -176 -46q-116 0 -191 71t-75 186q0 113 71.5 185t173.5 72q95 0 159.5 -63.5t64.5 -174.5q0 -27 -3 -45zM288 422q-53 0 -96.5 -33.5t-54.5 -97.5h290q-5 67 -46 99t-93 32zM284 572q-66 0 -101.5 41
t-37.5 107h58q8 -92 81 -92t81 92h58q-2 -66 -37.5 -107t-101.5 -41z" />
    <glyph glyph-name="Edotaccent" unicode="&#x116;" horiz-adv-x="551" 
d="M81 0v724h418v-86h-323v-220h283v-83h-283v-249h332v-86h-427zM290 822q-23 0 -39 16t-16 39t16 39t39 16t39 -16t16 -39t-16 -39t-39 -16z" />
    <glyph glyph-name="edotaccent" unicode="&#x117;" horiz-adv-x="563" 
d="M511 220h-376q10 -71 59 -110.5t123 -39.5q89 0 170 61v-96q-72 -46 -176 -46q-116 0 -191 71t-75 186q0 113 71.5 185t173.5 72q95 0 159.5 -63.5t64.5 -174.5q0 -27 -3 -45zM288 422q-53 0 -96.5 -33.5t-54.5 -97.5h290q-5 67 -46 99t-93 32zM285 590q-23 0 -39 16
t-16 39t16 39t39 16t39 -16t16 -39t-16 -39t-39 -16z" />
    <glyph glyph-name="Eogonek" unicode="&#x118;" horiz-adv-x="551" 
d="M81 0v724h418v-86h-323v-220h283v-83h-283v-249h332v-86q-42 -20 -67 -53.5t-25 -65.5q0 -22 13.5 -35.5t37.5 -13.5q20 0 41 6v-60q-29 -9 -56 -9q-51 0 -81.5 28t-30.5 71q0 73 71 130l-1 2h-329z" />
    <glyph glyph-name="eogonek" unicode="&#x119;" horiz-adv-x="563" 
d="M511 220h-376q10 -71 59 -110.5t123 -39.5q89 0 170 61v-96q-124 -77 -124 -153q0 -51 52 -51q16 0 38 5v-60q-30 -8 -54 -8q-51 0 -81.5 27.5t-30.5 72.5q0 62 53 120l-1 2q-9 -1 -28 -1q-116 0 -191 71t-75 186q0 113 71.5 185t173.5 72q95 0 159.5 -63.5t64.5 -174.5
q0 -27 -3 -45zM288 422q-53 0 -96.5 -33.5t-54.5 -97.5h290q-5 67 -46 99t-93 32z" />
    <glyph glyph-name="Ecaron" unicode="&#x11a;" horiz-adv-x="551" 
d="M81 0v724h418v-86h-323v-220h283v-83h-283v-249h332v-86h-427zM450 959l-113 -164h-96l-113 164h75l86 -105l86 105h75z" />
    <glyph glyph-name="ecaron" unicode="&#x11b;" horiz-adv-x="563" 
d="M511 220h-376q10 -71 59 -110.5t123 -39.5q89 0 170 61v-96q-72 -46 -176 -46q-116 0 -191 71t-75 186q0 113 71.5 185t173.5 72q95 0 159.5 -63.5t64.5 -174.5q0 -27 -3 -45zM288 422q-53 0 -96.5 -33.5t-54.5 -97.5h290q-5 67 -46 99t-93 32zM445 727l-113 -164h-96
l-113 164h75l86 -105l86 105h75z" />
    <glyph glyph-name="Gcircumflex" unicode="&#x11c;" horiz-adv-x="735" 
d="M41 360q0 161 107.5 268t274.5 107q125 0 222 -60v-108q-97 80 -224 80q-126 0 -205.5 -82t-79.5 -203q0 -120 78.5 -203.5t209.5 -83.5q83 0 148 34v169h-162v83h257v-299q-106 -73 -251 -73q-161 0 -268 105t-107 266zM244 795l113 164h96l113 -164h-75l-86 105
l-86 -105h-75z" />
    <glyph glyph-name="gcircumflex" unicode="&#x11d;" horiz-adv-x="595" 
d="M112 -194v96q77 -51 156 -51q71 0 114 40t43 109v36l-2 1q-56 -38 -134 -38q-102 0 -171.5 69.5t-69.5 176.5q0 108 69.5 183t185.5 75q67 0 125 -28l87 15v-488q0 -108 -66.5 -170.5t-180.5 -62.5q-84 0 -156 37zM139 251q0 -75 45.5 -124t117.5 -49q73 0 123 40v271
q-55 34 -124 34q-73 0 -117.5 -49t-44.5 -123zM146 563l113 164h96l113 -164h-75l-86 105l-86 -105h-75z" />
    <glyph glyph-name="Gbreve" unicode="&#x11e;" horiz-adv-x="735" 
d="M41 360q0 161 107.5 268t274.5 107q125 0 222 -60v-108q-97 80 -224 80q-126 0 -205.5 -82t-79.5 -203q0 -120 78.5 -203.5t209.5 -83.5q83 0 148 34v169h-162v83h257v-299q-106 -73 -251 -73q-161 0 -268 105t-107 266zM405 804q-66 0 -101.5 41t-37.5 107h58
q8 -92 81 -92t81 92h58q-2 -66 -37.5 -107t-101.5 -41z" />
    <glyph glyph-name="gbreve" unicode="&#x11f;" horiz-adv-x="595" 
d="M112 -194v96q77 -51 156 -51q71 0 114 40t43 109v36l-2 1q-56 -38 -134 -38q-102 0 -171.5 69.5t-69.5 176.5q0 108 69.5 183t185.5 75q67 0 125 -28l87 15v-488q0 -108 -66.5 -170.5t-180.5 -62.5q-84 0 -156 37zM139 251q0 -75 45.5 -124t117.5 -49q73 0 123 40v271
q-55 34 -124 34q-73 0 -117.5 -49t-44.5 -123zM307 572q-66 0 -101.5 41t-37.5 107h58q8 -92 81 -92t81 92h58q-2 -66 -37.5 -107t-101.5 -41z" />
    <glyph glyph-name="Gdotaccent" unicode="&#x120;" horiz-adv-x="735" 
d="M41 360q0 161 107.5 268t274.5 107q125 0 222 -60v-108q-97 80 -224 80q-126 0 -205.5 -82t-79.5 -203q0 -120 78.5 -203.5t209.5 -83.5q83 0 148 34v169h-162v83h257v-299q-106 -73 -251 -73q-161 0 -268 105t-107 266zM406 822q-23 0 -39 16t-16 39t16 39t39 16t39 -16
t16 -39t-16 -39t-39 -16z" />
    <glyph glyph-name="gdotaccent" unicode="&#x121;" horiz-adv-x="595" 
d="M112 -194v96q77 -51 156 -51q71 0 114 40t43 109v36l-2 1q-56 -38 -134 -38q-102 0 -171.5 69.5t-69.5 176.5q0 108 69.5 183t185.5 75q67 0 125 -28l87 15v-488q0 -108 -66.5 -170.5t-180.5 -62.5q-84 0 -156 37zM139 251q0 -75 45.5 -124t117.5 -49q73 0 123 40v271
q-55 34 -124 34q-73 0 -117.5 -49t-44.5 -123zM308 590q-23 0 -39 16t-16 39t16 39t39 16t39 -16t16 -39t-16 -39t-39 -16z" />
    <glyph glyph-name="Gcommaaccent" unicode="&#x122;" horiz-adv-x="735" 
d="M41 360q0 161 107.5 268t274.5 107q125 0 222 -60v-108q-97 80 -224 80q-126 0 -205.5 -82t-79.5 -203q0 -120 78.5 -203.5t209.5 -83.5q83 0 148 34v169h-162v83h257v-299q-106 -73 -251 -73q-161 0 -268 105t-107 266zM387 -54h88l-76 -218h-65z" />
    <glyph glyph-name="gcommaaccent" unicode="&#x123;" horiz-adv-x="595" 
d="M112 -194v96q77 -51 156 -51q71 0 114 40t43 109v36l-2 1q-56 -38 -134 -38q-102 0 -171.5 69.5t-69.5 176.5q0 108 69.5 183t185.5 75q67 0 125 -28l87 15v-488q0 -108 -66.5 -170.5t-180.5 -62.5q-84 0 -156 37zM139 251q0 -75 45.5 -124t117.5 -49q73 0 123 40v271
q-55 34 -124 34q-73 0 -117.5 -49t-44.5 -123zM236 556l76 218h65l-53 -218h-88z" />
    <glyph glyph-name="Hcircumflex" unicode="&#x124;" horiz-adv-x="746" 
d="M81 0v724h95v-305h394v305h95v-724h-95v333h-394v-333h-95zM212 795l113 164h96l113 -164h-75l-86 105l-86 -105h-75z" />
    <glyph glyph-name="hcircumflex" unicode="&#x125;" horiz-adv-x="592" 
d="M79 0v764h90v-334l2 -1q74 74 172 74q83 0 131 -54q41 -47 41 -145v-304h-90v287q0 73 -24 100q-28 32 -75 32q-43 0 -85.5 -23t-71.5 -59v-337h-90zM-37 826l113 164h96l113 -164h-75l-86 105l-86 -105h-75z" />
    <glyph glyph-name="Hbar" unicode="&#x126;" horiz-adv-x="754" 
d="M6 532v78h79v114h95v-114h394v114h95v-114h79v-78h-79v-532h-95v333h-394v-333h-95v532h-79zM180 419h394v113h-394v-113z" />
    <glyph glyph-name="hbar" unicode="&#x127;" horiz-adv-x="592" 
d="M10 587v73h69v104h90v-104h172v-73h-172v-157l2 -1q74 74 172 74q83 0 131 -54q41 -47 41 -145v-304h-90v287q0 73 -24 100q-28 32 -75 32q-43 0 -85.5 -23t-71.5 -59v-337h-90v587h-69z" />
    <glyph glyph-name="Itilde" unicode="&#x128;" horiz-adv-x="257" 
d="M81 0v724h95v-724h-95zM121 842q-46 23 -67 23q-39 0 -81 -48l-2 1v78q31 43 83 43q33 0 81 -24q46 -23 67 -23q39 0 81 48l2 -1v-78q-31 -43 -83 -43q-33 0 -81 24z" />
    <glyph glyph-name="itilde" unicode="&#x129;" horiz-adv-x="248" 
d="M79 0v492h90v-492h-90zM117 610q-46 23 -67 23q-39 0 -81 -48l-2 1v78q31 43 83 43q33 0 81 -24q46 -23 67 -23q39 0 81 48l2 -1v-78q-31 -43 -83 -43q-33 0 -81 24z" />
    <glyph glyph-name="Imacron" unicode="&#x12a;" horiz-adv-x="257" 
d="M81 0v724h95v-724h-95zM-9 843v68h274v-68h-274z" />
    <glyph glyph-name="imacron" unicode="&#x12b;" horiz-adv-x="248" 
d="M79 0v492h90v-492h-90zM-13 611v68h274v-68h-274z" />
    <glyph glyph-name="Ibreve" unicode="&#x12c;" horiz-adv-x="257" 
d="M81 0v724h95v-724h-95zM128 804q-66 0 -101.5 41t-37.5 107h58q8 -92 81 -92t81 92h58q-2 -66 -37.5 -107t-101.5 -41z" />
    <glyph glyph-name="ibreve" unicode="&#x12d;" horiz-adv-x="248" 
d="M79 0v492h90v-492h-90zM124 572q-66 0 -101.5 41t-37.5 107h58q8 -92 81 -92t81 92h58q-2 -66 -37.5 -107t-101.5 -41z" />
    <glyph glyph-name="Iogonek" unicode="&#x12e;" horiz-adv-x="257" 
d="M138 -231q-51 0 -81.5 29t-30.5 75q0 63 55 127v724h95v-724q-35 -26 -54.5 -57.5t-19.5 -59.5q0 -51 51 -51q18 0 40 5v-60q-24 -8 -55 -8z" />
    <glyph glyph-name="iogonek" unicode="&#x12f;" horiz-adv-x="248" 
d="M79 0v492h90v-492q-69 -58 -69 -117q0 -51 52 -51q16 0 38 5v-60q-30 -8 -53 -8q-52 0 -82.5 29t-30.5 75q0 61 55 127zM61 661q0 26 18.5 44.5t44.5 18.5t44.5 -18.5t18.5 -44.5t-18.5 -44.5t-44.5 -18.5t-44.5 18.5t-18.5 44.5z" />
    <glyph glyph-name="Idotaccent" unicode="&#x130;" horiz-adv-x="257" 
d="M81 0v724h95v-724h-95zM129 822q-23 0 -39 16t-16 39t16 39t39 16t39 -16t16 -39t-16 -39t-39 -16z" />
    <glyph glyph-name="dotlessi" unicode="&#x131;" horiz-adv-x="248" 
d="M79 0v492h90v-492h-90z" />
    <glyph glyph-name="IJ" unicode="&#x132;" horiz-adv-x="655" 
d="M81 0v724h95v-724h-95zM286 10v90q55 -23 103 -23q54 0 72 31.5t18 96.5v519h95v-514q0 -114 -38 -161q-49 -60 -145 -60q-48 0 -105 21z" />
    <glyph glyph-name="ij" unicode="&#x133;" horiz-adv-x="497" 
d="M61 661q0 26 18.5 44.5t44.5 18.5t44.5 -18.5t18.5 -44.5t-18.5 -44.5t-44.5 -18.5t-44.5 18.5t-18.5 44.5zM79 0v492h90v-492h-90zM310 661q0 26 18.5 44.5t44.5 18.5t44.5 -18.5t18.5 -44.5t-18.5 -44.5t-44.5 -18.5t-44.5 18.5t-18.5 44.5zM328 -55v547h90v-543
q0 -94 -34 -133q-40 -47 -121 -47q-32 0 -59 8v81q33 -7 56 -7q40 0 54 23.5t14 70.5z" />
    <glyph glyph-name="Jcircumflex" unicode="&#x134;" horiz-adv-x="398" 
d="M29 10v90q55 -23 103 -23q54 0 72 31.5t18 96.5v519h95v-514q0 -114 -38 -161q-49 -60 -145 -60q-48 0 -105 21zM108 795l113 164h96l113 -164h-75l-86 105l-86 -105h-75z" />
    <glyph glyph-name="jcircumflex" unicode="&#x135;" horiz-adv-x="249" 
d="M80 -55v547h90v-543q0 -94 -34 -133q-40 -47 -121 -47q-32 0 -59 8v81q33 -7 56 -7q40 0 54 23.5t14 70.5zM-34 563l113 164h96l113 -164h-75l-86 105l-86 -105h-75z" />
    <glyph glyph-name="Kcommaaccent" unicode="&#x136;" horiz-adv-x="627" 
d="M81 0v724h95v-328l2 -1l316 329h118l-325 -336l353 -388h-124l-338 374l-2 -1v-373h-95zM295 -54h88l-76 -218h-65z" />
    <glyph glyph-name="kcommaaccent" unicode="&#x137;" horiz-adv-x="528" 
d="M79 0v764h90v-488l2 -1l220 217h115l-225 -220l249 -272h-118l-241 267l-2 -1v-266h-90zM246 -54h88l-76 -218h-65z" />
    <glyph glyph-name="kgreenlandic" unicode="&#x138;" horiz-adv-x="528" 
d="M79 0v492h90v-216l2 -1l220 217h115l-225 -220l249 -272h-118l-241 267l-2 -1v-266h-90z" />
    <glyph glyph-name="Lacute" unicode="&#x139;" horiz-adv-x="547" 
d="M81 0v724h95v-638h342v-86h-437zM274 959l-110 -164h-68l77 164h101z" />
    <glyph glyph-name="lacute" unicode="&#x13a;" horiz-adv-x="248" 
d="M79 0v764h90v-764h-90zM251 990l-110 -164h-68l77 164h101z" />
    <glyph glyph-name="Lcommaaccent" unicode="&#x13b;" horiz-adv-x="547" 
d="M81 0v724h95v-638h342v-86h-437zM275 -54h88l-76 -218h-65z" />
    <glyph glyph-name="lcommaaccent" unicode="&#x13c;" horiz-adv-x="248" 
d="M79 0v764h90v-764h-90zM106 -54h88l-76 -218h-65z" />
    <glyph glyph-name="Lcaron" unicode="&#x13d;" horiz-adv-x="547" 
d="M81 0v724h95v-638h342v-86h-437zM276 511l55 269h88l-82 -269h-61z" />
    <glyph glyph-name="lcaron" unicode="&#x13e;" horiz-adv-x="343" 
d="M79 0v764h90v-764h-90zM283 764h88l-76 -218h-65z" />
    <glyph glyph-name="Ldot" unicode="&#x13f;" horiz-adv-x="547" 
d="M81 0v724h95v-638h342v-86h-437zM337 390q0 27 19.5 46.5t46.5 19.5t46.5 -19.5t19.5 -46.5t-19.5 -46.5t-46.5 -19.5t-46.5 19.5t-19.5 46.5z" />
    <glyph glyph-name="ldot" unicode="&#x140;" horiz-adv-x="350" 
d="M79 0v764h90v-764h-90zM297 271q-23 0 -39 16t-16 39t16 39t39 16t39 -16t16 -39t-16 -39t-39 -16z" />
    <glyph glyph-name="Lslash" unicode="&#x141;" horiz-adv-x="550" 
d="M84 0v275l-93 -63v89l93 63v360h95v-297l127 86v-89l-127 -86v-252h342v-86h-437z" />
    <glyph glyph-name="lslash" unicode="&#x142;" horiz-adv-x="260" 
d="M85 0v294l-83 -56v87l83 56v383h90v-322l83 56v-87l-83 -56v-355h-90z" />
    <glyph glyph-name="Nacute" unicode="&#x143;" horiz-adv-x="772" 
d="M173 0h-92v724h90l303 -402q59 -78 125 -169l2 1q-2 126 -2 206v364h92v-724h-90l-303 402q-59 78 -125 169l-2 -1q2 -126 2 -206v-364zM506 959l-110 -164h-68l77 164h101z" />
    <glyph glyph-name="nacute" unicode="&#x144;" horiz-adv-x="592" 
d="M79 0v492h90v-62l2 -1q74 74 172 74q83 0 131 -54q41 -47 41 -145v-304h-90v287q0 73 -23 100q-27 32 -79 32q-42 0 -84.5 -23t-69.5 -59v-337h-90zM416 727l-110 -164h-68l77 164h101z" />
    <glyph glyph-name="Ncommaaccent" unicode="&#x145;" horiz-adv-x="772" 
d="M173 0h-92v724h90l303 -402q59 -78 125 -169l2 1q-2 126 -2 206v364h92v-724h-90l-303 402q-59 78 -125 169l-2 -1q2 -126 2 -206v-364zM368 -54h88l-76 -218h-65z" />
    <glyph glyph-name="ncommaaccent" unicode="&#x146;" horiz-adv-x="592" 
d="M79 0v492h90v-62l2 -1q74 74 172 74q83 0 131 -54q41 -47 41 -145v-304h-90v287q0 73 -23 100q-27 32 -79 32q-42 0 -84.5 -23t-69.5 -59v-337h-90zM278 -54h88l-76 -218h-65z" />
    <glyph glyph-name="Ncaron" unicode="&#x147;" horiz-adv-x="772" 
d="M173 0h-92v724h90l303 -402q59 -78 125 -169l2 1q-2 126 -2 206v364h92v-724h-90l-303 402q-59 78 -125 169l-2 -1q2 -126 2 -206v-364zM547 959l-113 -164h-96l-113 164h75l86 -105l86 105h75z" />
    <glyph glyph-name="ncaron" unicode="&#x148;" horiz-adv-x="592" 
d="M79 0v492h90v-62l2 -1q74 74 172 74q83 0 131 -54q41 -47 41 -145v-304h-90v287q0 73 -23 100q-27 32 -79 32q-42 0 -84.5 -23t-69.5 -59v-337h-90zM457 727l-113 -164h-96l-113 164h75l86 -105l86 105h75z" />
    <glyph glyph-name="napostrophe" unicode="&#x149;" horiz-adv-x="592" 
d="M79 0v492h90v-62l2 -1q74 74 172 74q83 0 131 -54q41 -47 41 -145v-304h-90v287q0 73 -23 100q-27 32 -79 32q-42 0 -84.5 -23t-69.5 -59v-337h-90zM118 772h88l-76 -218h-65z" />
    <glyph glyph-name="Eng" unicode="&#x14a;" horiz-adv-x="772" 
d="M403 -210v90q55 -23 103 -23q54 0 72 31.5t18 96.5v21l-298 396q-59 78 -125 169l-2 -1q2 -126 2 -206v-364h-92v724h90l303 -402q59 -78 125 -169l2 1q-2 126 -2 206v364h92v-734q0 -114 -38 -161q-49 -60 -145 -60q-48 0 -105 21z" />
    <glyph glyph-name="eng" unicode="&#x14b;" horiz-adv-x="592" 
d="M79 0v492h90v-62l2 -1q74 74 172 74q83 0 131 -54q41 -47 41 -145v-355q0 -94 -34 -133q-40 -47 -121 -47q-32 0 -59 8v81q33 -7 56 -7q40 0 54 23.5t14 70.5v342q0 73 -23 100q-27 32 -79 32q-42 0 -84.5 -23t-69.5 -59v-337h-90z" />
    <glyph glyph-name="Omacron" unicode="&#x14c;" horiz-adv-x="816" 
d="M40 362q0 158 105.5 265.5t262.5 107.5t262.5 -107.5t105.5 -265.5t-105.5 -265.5t-262.5 -107.5t-262.5 107.5t-105.5 265.5zM135 362q0 -120 77.5 -202.5t195.5 -82.5t195.5 82.5t77.5 202.5t-77.5 202.5t-195.5 82.5t-195.5 -82.5t-77.5 -202.5zM271 843v68h274v-68
h-274z" />
    <glyph glyph-name="omacron" unicode="&#x14d;" horiz-adv-x="610" 
d="M45 246q0 109 74.5 183t185.5 74t185.5 -74t74.5 -183t-74.5 -183t-185.5 -74t-185.5 74t-74.5 183zM135 246q0 -75 48.5 -125t121.5 -50t121.5 50t48.5 125t-48.5 125t-121.5 50t-121.5 -50t-48.5 -125zM168 611v68h274v-68h-274z" />
    <glyph glyph-name="Obreve" unicode="&#x14e;" horiz-adv-x="816" 
d="M40 362q0 158 105.5 265.5t262.5 107.5t262.5 -107.5t105.5 -265.5t-105.5 -265.5t-262.5 -107.5t-262.5 107.5t-105.5 265.5zM135 362q0 -120 77.5 -202.5t195.5 -82.5t195.5 82.5t77.5 202.5t-77.5 202.5t-195.5 82.5t-195.5 -82.5t-77.5 -202.5zM408 804
q-66 0 -101.5 41t-37.5 107h58q8 -92 81 -92t81 92h58q-2 -66 -37.5 -107t-101.5 -41z" />
    <glyph glyph-name="obreve" unicode="&#x14f;" horiz-adv-x="610" 
d="M45 246q0 109 74.5 183t185.5 74t185.5 -74t74.5 -183t-74.5 -183t-185.5 -74t-185.5 74t-74.5 183zM135 246q0 -75 48.5 -125t121.5 -50t121.5 50t48.5 125t-48.5 125t-121.5 50t-121.5 -50t-48.5 -125zM305 572q-66 0 -101.5 41t-37.5 107h58q8 -92 81 -92t81 92h58
q-2 -66 -37.5 -107t-101.5 -41z" />
    <glyph glyph-name="Ohungarumlaut" unicode="&#x150;" horiz-adv-x="816" 
d="M40 362q0 158 105.5 265.5t262.5 107.5t262.5 -107.5t105.5 -265.5t-105.5 -265.5t-262.5 -107.5t-262.5 107.5t-105.5 265.5zM135 362q0 -120 77.5 -202.5t195.5 -82.5t195.5 82.5t77.5 202.5t-77.5 202.5t-195.5 82.5t-195.5 -82.5t-77.5 -202.5zM420 795l83 164h79
l-103 -164h-59zM282 795l83 164h79l-103 -164h-59z" />
    <glyph glyph-name="ohungarumlaut" unicode="&#x151;" horiz-adv-x="610" 
d="M45 246q0 109 74.5 183t185.5 74t185.5 -74t74.5 -183t-74.5 -183t-185.5 -74t-185.5 74t-74.5 183zM135 246q0 -75 48.5 -125t121.5 -50t121.5 50t48.5 125t-48.5 125t-121.5 50t-121.5 -50t-48.5 -125zM317 563l83 164h79l-103 -164h-59zM179 563l83 164h79l-103 -164
h-59z" />
    <glyph glyph-name="OE" unicode="&#x152;" horiz-adv-x="929" 
d="M202 60q-78 48 -120 125.5t-42 175.5q0 189 143 290q103 73 280 73h414v-86h-311v-220h271v-83h-271v-249h320v-86h-427q-158 0 -257 60zM252 136q44 -28 92 -38.5t127 -11.5v552q-146 -1 -219 -49q-117 -76 -117 -227q0 -149 117 -226z" />
    <glyph glyph-name="oe" unicode="&#x153;" horiz-adv-x="980" 
d="M929 220h-368q10 -71 58 -110.5t120 -39.5q86 0 167 61v-96q-72 -46 -173 -46q-72 0 -128.5 29t-88.5 82h-2q-34 -52 -89 -81.5t-123 -29.5q-111 0 -184 73.5t-73 182.5q0 110 73.5 184t184.5 74q67 0 121.5 -29.5t88.5 -81.5h2q31 52 83.5 81.5t114.5 29.5
q94 0 157 -63.5t63 -169.5q0 -26 -4 -50zM135 247q0 -75 48 -125.5t121 -50.5q72 0 119.5 50t47.5 124q0 75 -48 125.5t-121 50.5q-72 0 -119.5 -49.5t-47.5 -124.5zM711 422q-54 0 -96.5 -33.5t-52.5 -97.5h285q-2 53 -39 92t-97 39z" />
    <glyph glyph-name="Racute" unicode="&#x154;" horiz-adv-x="646" 
d="M81 0v724h196q138 0 202 -36q100 -55 100 -169t-93 -170q-36 -22 -83 -30l232 -319h-115l-221 310h-123v-310h-95zM176 388h123q98 0 142 33q43 32 43 90q0 70 -59 103q-45 24 -155 24h-94v-250zM423 959l-110 -164h-68l77 164h101z" />
    <glyph glyph-name="racute" unicode="&#x155;" horiz-adv-x="367" 
d="M79 0v492h90v-72l2 -1q55 77 146 77q17 0 32 -4v-89q-16 4 -35 4q-94 0 -145 -87v-320h-90zM303 727l-110 -164h-68l77 164h101z" />
    <glyph glyph-name="Rcommaaccent" unicode="&#x156;" horiz-adv-x="646" 
d="M81 0v724h196q138 0 202 -36q100 -55 100 -169t-93 -170q-36 -22 -83 -30l232 -319h-115l-221 310h-123v-310h-95zM176 388h123q98 0 142 33q43 32 43 90q0 70 -59 103q-45 24 -155 24h-94v-250zM285 -54h88l-76 -218h-65z" />
    <glyph glyph-name="rcommaaccent" unicode="&#x157;" horiz-adv-x="367" 
d="M79 0v492h90v-72l2 -1q55 77 146 77q17 0 32 -4v-89q-16 4 -35 4q-94 0 -145 -87v-320h-90zM126 -54h88l-76 -218h-65z" />
    <glyph glyph-name="Rcaron" unicode="&#x158;" horiz-adv-x="646" 
d="M81 0v724h196q138 0 202 -36q100 -55 100 -169t-93 -170q-36 -22 -83 -30l232 -319h-115l-221 310h-123v-310h-95zM176 388h123q98 0 142 33q43 32 43 90q0 70 -59 103q-45 24 -155 24h-94v-250zM464 959l-113 -164h-96l-113 164h75l86 -105l86 105h75z" />
    <glyph glyph-name="rcaron" unicode="&#x159;" horiz-adv-x="367" 
d="M79 0v492h90v-72l2 -1q55 77 146 77q17 0 32 -4v-89q-16 4 -35 4q-94 0 -145 -87v-320h-90zM344 727l-113 -164h-96l-113 164h75l86 -105l86 105h75z" />
    <glyph glyph-name="Sacute" unicode="&#x15a;" horiz-adv-x="561" 
d="M64 44v104q48 -36 106 -54t110 -18q67 0 107 30.5t40 87.5q0 31 -11 52.5t-38.5 36.5t-46.5 22t-63 19l-21 6q-45 13 -75.5 26t-62 36t-47.5 58.5t-16 82.5q0 95 63.5 148.5t170.5 53.5q123 0 208 -54v-100q-96 67 -210 67q-63 0 -100.5 -27.5t-37.5 -81.5q0 -13 3 -25
t6.5 -21t11.5 -17.5t13.5 -14t18.5 -12l20 -10t23.5 -8.5t23.5 -7t26 -7.5t26 -7.5q37 -10 63 -20t55.5 -27t47.5 -38t30.5 -53t12.5 -72q0 -98 -66 -154t-176 -56q-120 0 -215 55zM400 959l-110 -164h-68l77 164h101z" />
    <glyph glyph-name="sacute" unicode="&#x15b;" horiz-adv-x="499" 
d="M66 28v94q83 -52 187 -52q112 0 112 68q0 12 -3.5 21.5t-12.5 16.5t-17.5 11.5t-24.5 8t-26 5.5t-31 5t-32 5q-82 14 -125 44t-43 97q1 74 56.5 112.5t145.5 38.5q102 0 176 -39v-90q-82 48 -180 48q-107 0 -107 -63q0 -12 3.5 -21t12 -15t17 -10.5t23.5 -7.5t26 -5
t30.5 -5t30.5 -5q40 -7 67.5 -15.5t53 -24t38.5 -41.5t13 -63q0 -80 -59.5 -118.5t-147.5 -38.5q-107 0 -183 39zM370 727l-110 -164h-68l77 164h101z" />
    <glyph glyph-name="Scircumflex" unicode="&#x15c;" horiz-adv-x="561" 
d="M64 44v104q48 -36 106 -54t110 -18q67 0 107 30.5t40 87.5q0 31 -11 52.5t-38.5 36.5t-46.5 22t-63 19l-21 6q-45 13 -75.5 26t-62 36t-47.5 58.5t-16 82.5q0 95 63.5 148.5t170.5 53.5q123 0 208 -54v-100q-96 67 -210 67q-63 0 -100.5 -27.5t-37.5 -81.5q0 -13 3 -25
t6.5 -21t11.5 -17.5t13.5 -14t18.5 -12l20 -10t23.5 -8.5t23.5 -7t26 -7.5t26 -7.5q37 -10 63 -20t55.5 -27t47.5 -38t30.5 -53t12.5 -72q0 -98 -66 -154t-176 -56q-120 0 -215 55zM119 795l113 164h96l113 -164h-75l-86 105l-86 -105h-75z" />
    <glyph glyph-name="scircumflex" unicode="&#x15d;" horiz-adv-x="499" 
d="M66 28v94q83 -52 187 -52q112 0 112 68q0 12 -3.5 21.5t-12.5 16.5t-17.5 11.5t-24.5 8t-26 5.5t-31 5t-32 5q-82 14 -125 44t-43 97q1 74 56.5 112.5t145.5 38.5q102 0 176 -39v-90q-82 48 -180 48q-107 0 -107 -63q0 -12 3.5 -21t12 -15t17 -10.5t23.5 -7.5t26 -5
t30.5 -5t30.5 -5q40 -7 67.5 -15.5t53 -24t38.5 -41.5t13 -63q0 -80 -59.5 -118.5t-147.5 -38.5q-107 0 -183 39zM89 563l113 164h96l113 -164h-75l-86 105l-86 -105h-75z" />
    <glyph glyph-name="Scedilla" unicode="&#x15e;" horiz-adv-x="561" 
d="M228 -86l23 76q-110 9 -187 54v104q48 -36 106 -54t110 -18q67 0 107 30.5t40 87.5q0 31 -11 52.5t-38.5 36.5t-46.5 22t-63 19l-21 6q-45 13 -75.5 26t-62 36t-47.5 58.5t-16 82.5q0 95 63.5 148.5t170.5 53.5q123 0 208 -54v-100q-96 67 -210 67q-63 0 -100.5 -27.5
t-37.5 -81.5q0 -13 3 -25t6.5 -21t11.5 -17.5t13.5 -14t18.5 -12l20 -10t23.5 -8.5t23.5 -7t26 -7.5t26 -7.5q37 -10 63 -20t55.5 -27t47.5 -38t30.5 -53t12.5 -72q0 -93 -60 -148.5t-162 -60.5l-10 -33q89 -20 89 -90q0 -40 -28.5 -64t-76.5 -24q-44 0 -80 18l15 51
q38 -19 64 -19q21 0 34.5 9t13.5 26q0 45 -92 50z" />
    <glyph glyph-name="scedilla" unicode="&#x15f;" horiz-adv-x="499" 
d="M204 -86l23 76q-93 3 -161 38v94q83 -52 187 -52q112 0 112 68q0 12 -3.5 21.5t-12.5 16.5t-17.5 11.5t-24.5 8t-26 5.5t-31 5t-32 5q-82 14 -125 44t-43 97q1 74 56.5 112.5t145.5 38.5q102 0 176 -39v-90q-82 48 -180 48q-107 0 -107 -63q0 -12 3.5 -21t12 -15
t17 -10.5t23.5 -7.5t26 -5t30.5 -5t30.5 -5q40 -7 67.5 -15.5t53 -24t38.5 -41.5t13 -63q0 -74 -51.5 -112.5t-129.5 -43.5l-10 -33q89 -20 89 -90q0 -40 -28.5 -64t-76.5 -24q-44 0 -80 18l15 51q38 -19 64 -19q21 0 34.5 9t13.5 26q0 45 -92 50z" />
    <glyph glyph-name="Scaron" unicode="&#x160;" horiz-adv-x="561" 
d="M64 44v104q48 -36 106 -54t110 -18q67 0 107 30.5t40 87.5q0 31 -11 52.5t-38.5 36.5t-46.5 22t-63 19l-21 6q-45 13 -75.5 26t-62 36t-47.5 58.5t-16 82.5q0 95 63.5 148.5t170.5 53.5q123 0 208 -54v-100q-96 67 -210 67q-63 0 -100.5 -27.5t-37.5 -81.5q0 -13 3 -25
t6.5 -21t11.5 -17.5t13.5 -14t18.5 -12l20 -10t23.5 -8.5t23.5 -7t26 -7.5t26 -7.5q37 -10 63 -20t55.5 -27t47.5 -38t30.5 -53t12.5 -72q0 -98 -66 -154t-176 -56q-120 0 -215 55zM441 959l-113 -164h-96l-113 164h75l86 -105l86 105h75z" />
    <glyph glyph-name="scaron" unicode="&#x161;" horiz-adv-x="499" 
d="M66 28v94q83 -52 187 -52q112 0 112 68q0 12 -3.5 21.5t-12.5 16.5t-17.5 11.5t-24.5 8t-26 5.5t-31 5t-32 5q-82 14 -125 44t-43 97q1 74 56.5 112.5t145.5 38.5q102 0 176 -39v-90q-82 48 -180 48q-107 0 -107 -63q0 -12 3.5 -21t12 -15t17 -10.5t23.5 -7.5t26 -5
t30.5 -5t30.5 -5q40 -7 67.5 -15.5t53 -24t38.5 -41.5t13 -63q0 -80 -59.5 -118.5t-147.5 -38.5q-107 0 -183 39zM411 727l-113 -164h-96l-113 164h75l86 -105l86 105h75z" />
    <glyph glyph-name="Tcommaaccent" unicode="&#x162;" horiz-adv-x="621" 
d="M263 0v638h-243v86h581v-86h-243v-638h-25l-13 -43q89 -20 89 -90q0 -40 -28.5 -64t-76.5 -24q-44 0 -80 18l15 51q38 -19 64 -19q21 0 34.5 9t13.5 26q0 45 -92 50l26 86h-22z" />
    <glyph glyph-name="tcommaaccent" unicode="&#x163;" horiz-adv-x="389" 
d="M180 -86l26 85q-32 12 -52 36q-37 42 -37 136v240h-91v81h91v134l90 15v-149h148v-81h-148v-223q0 -55 15 -86t59 -31q41 0 74 21v-85q-36 -18 -89 -18q-9 0 -15 1l-10 -33q89 -20 89 -90q0 -40 -28.5 -64t-76.5 -24q-44 0 -80 18l15 51q38 -19 64 -19q21 0 34.5 9
t13.5 26q0 45 -92 50z" />
    <glyph glyph-name="Tcaron" unicode="&#x164;" horiz-adv-x="621" 
d="M263 0v638h-243v86h581v-86h-243v-638h-95zM471 959l-113 -164h-96l-113 164h75l86 -105l86 105h75z" />
    <glyph glyph-name="tcaron" unicode="&#x165;" horiz-adv-x="389" 
d="M154 35q-37 42 -37 136v240h-91v81h91v134l90 15v-149h148v-81h-148v-223q0 -55 15 -86t59 -31q41 0 74 21v-85q-36 -18 -89 -18q-72 0 -112 46zM338 772h88l-76 -218h-65z" />
    <glyph glyph-name="Tbar" unicode="&#x166;" horiz-adv-x="621" 
d="M132 318v78h131v242h-243v86h581v-86h-243v-242h131v-78h-131v-318h-95v318h-131z" />
    <glyph glyph-name="tbar" unicode="&#x167;" horiz-adv-x="400" 
d="M30 228v81h91v102h-91v81h91v134l90 15v-149h148v-81h-148v-102h148v-81h-148v-40q0 -55 15 -86t59 -31q41 0 74 21v-85q-36 -18 -89 -18q-72 0 -112 46q-37 42 -37 136v57h-91z" />
    <glyph glyph-name="Utilde" unicode="&#x168;" horiz-adv-x="730" 
d="M121 102q-48 74 -48 239v383h95v-373q0 -134 28 -187q46 -87 172 -87q124 0 170 87q27 50 27 183v377h92v-372q0 -90 -9.5 -148t-38.5 -102q-35 -53 -98.5 -83t-146.5 -30t-145.5 30t-97.5 83zM358 842q-46 23 -67 23q-39 0 -81 -48l-2 1v78q31 43 83 43q33 0 81 -24
q46 -23 67 -23q39 0 81 48l2 -1v-78q-31 -43 -83 -43q-33 0 -81 24z" />
    <glyph glyph-name="utilde" unicode="&#x169;" horiz-adv-x="592" 
d="M117 44q-40 47 -40 147v301h90v-284q0 -74 24 -102q27 -34 78 -34q43 0 84 24t70 60v336h90v-492h-90v62l-2 1q-74 -74 -170 -74q-86 0 -134 55zM289 610q-46 23 -67 23q-39 0 -81 -48l-2 1v78q31 43 83 43q33 0 81 -24q46 -23 67 -23q39 0 81 48l2 -1v-78
q-31 -43 -83 -43q-33 0 -81 24z" />
    <glyph glyph-name="Umacron" unicode="&#x16a;" horiz-adv-x="730" 
d="M121 102q-48 74 -48 239v383h95v-373q0 -134 28 -187q46 -87 172 -87q124 0 170 87q27 50 27 183v377h92v-372q0 -90 -9.5 -148t-38.5 -102q-35 -53 -98.5 -83t-146.5 -30t-145.5 30t-97.5 83zM228 843v68h274v-68h-274z" />
    <glyph glyph-name="umacron" unicode="&#x16b;" horiz-adv-x="592" 
d="M117 44q-40 47 -40 147v301h90v-284q0 -74 24 -102q27 -34 78 -34q43 0 84 24t70 60v336h90v-492h-90v62l-2 1q-74 -74 -170 -74q-86 0 -134 55zM159 611v68h274v-68h-274z" />
    <glyph glyph-name="Ubreve" unicode="&#x16c;" horiz-adv-x="730" 
d="M121 102q-48 74 -48 239v383h95v-373q0 -134 28 -187q46 -87 172 -87q124 0 170 87q27 50 27 183v377h92v-372q0 -90 -9.5 -148t-38.5 -102q-35 -53 -98.5 -83t-146.5 -30t-145.5 30t-97.5 83zM365 804q-66 0 -101.5 41t-37.5 107h58q8 -92 81 -92t81 92h58
q-2 -66 -37.5 -107t-101.5 -41z" />
    <glyph glyph-name="ubreve" unicode="&#x16d;" horiz-adv-x="592" 
d="M117 44q-40 47 -40 147v301h90v-284q0 -74 24 -102q27 -34 78 -34q43 0 84 24t70 60v336h90v-492h-90v62l-2 1q-74 -74 -170 -74q-86 0 -134 55zM296 572q-66 0 -101.5 41t-37.5 107h58q8 -92 81 -92t81 92h58q-2 -66 -37.5 -107t-101.5 -41z" />
    <glyph glyph-name="Uring" unicode="&#x16e;" horiz-adv-x="730" 
d="M121 102q-48 74 -48 239v383h95v-373q0 -134 28 -187q46 -87 172 -87q124 0 170 87q27 50 27 183v377h92v-372q0 -90 -9.5 -148t-38.5 -102q-35 -53 -98.5 -83t-146.5 -30t-145.5 30t-97.5 83zM365 783q-50 0 -83.5 32.5t-33.5 81.5t33.5 81.5t83.5 32.5t83.5 -32.5
t33.5 -81.5t-33.5 -81.5t-83.5 -32.5zM365 833q28 0 45.5 18.5t17.5 45.5t-17.5 45.5t-45.5 18.5t-45.5 -18.5t-17.5 -45.5t17.5 -45.5t45.5 -18.5z" />
    <glyph glyph-name="uring" unicode="&#x16f;" horiz-adv-x="592" 
d="M117 44q-40 47 -40 147v301h90v-284q0 -74 24 -102q27 -34 78 -34q43 0 84 24t70 60v336h90v-492h-90v62l-2 1q-74 -74 -170 -74q-86 0 -134 55zM296 551q-50 0 -83.5 32.5t-33.5 81.5t33.5 81.5t83.5 32.5t83.5 -32.5t33.5 -81.5t-33.5 -81.5t-83.5 -32.5zM296 601
q28 0 45.5 18.5t17.5 45.5t-17.5 45.5t-45.5 18.5t-45.5 -18.5t-17.5 -45.5t17.5 -45.5t45.5 -18.5z" />
    <glyph glyph-name="Uhungarumlaut" unicode="&#x170;" horiz-adv-x="730" 
d="M121 102q-48 74 -48 239v383h95v-373q0 -134 28 -187q46 -87 172 -87q124 0 170 87q27 50 27 183v377h92v-372q0 -90 -9.5 -148t-38.5 -102q-35 -53 -98.5 -83t-146.5 -30t-145.5 30t-97.5 83zM377 795l83 164h79l-103 -164h-59zM239 795l83 164h79l-103 -164h-59z" />
    <glyph glyph-name="uhungarumlaut" unicode="&#x171;" horiz-adv-x="592" 
d="M117 44q-40 47 -40 147v301h90v-284q0 -74 24 -102q27 -34 78 -34q43 0 84 24t70 60v336h90v-492h-90v62l-2 1q-74 -74 -170 -74q-86 0 -134 55zM308 563l83 164h79l-103 -164h-59zM170 563l83 164h79l-103 -164h-59z" />
    <glyph glyph-name="Uogonek" unicode="&#x172;" horiz-adv-x="730" 
d="M121 102q-48 74 -48 239v383h95v-373q0 -134 28 -187q46 -87 172 -87q124 0 170 87q27 50 27 183v377h92v-372q0 -90 -9.5 -148t-38.5 -102q-58 -88 -182 -108q-73 -56 -73 -113q0 -22 13.5 -35.5t37.5 -13.5q20 0 41 6v-60q-29 -9 -56 -9q-51 0 -81.5 28t-30.5 71
q0 62 58 120l-1 2q-149 11 -214 112z" />
    <glyph glyph-name="uogonek" unicode="&#x173;" horiz-adv-x="592" 
d="M117 44q-40 47 -40 147v301h90v-284q0 -74 24 -102q27 -34 78 -34q43 0 84 24t70 60v336h90v-492q-42 -26 -66 -57.5t-24 -59.5q0 -51 51 -51q16 0 39 5v-60q-24 -8 -54 -8q-51 0 -81.5 27.5t-30.5 72.5q0 72 76 131v62l-2 1q-74 -74 -170 -74q-86 0 -134 55z" />
    <glyph glyph-name="Wcircumflex" unicode="&#x174;" horiz-adv-x="1013" 
d="M237 0l-225 724h101l121 -392q31 -101 57 -189h2q18 62 58 190l123 391h70l123 -392q38 -121 58 -189h2q22 76 57 190l121 391h96l-225 -724h-101l-116 368q-27 86 -51 168h-2q-28 -95 -51 -169l-115 -367h-103zM347 795l113 164h96l113 -164h-75l-86 105l-86 -105h-75z
" />
    <glyph glyph-name="wcircumflex" unicode="&#x175;" horiz-adv-x="825" 
d="M197 0l-171 492h98l73 -219q22 -67 49 -152h2q23 67 54 152l81 219h64l81 -219q27 -71 54 -152h2q21 70 48 151l73 220h94l-171 -492h-89l-77 211q-22 59 -48 138h-2q-26 -79 -48 -138l-77 -211h-90zM253 563l113 164h96l113 -164h-75l-86 105l-86 -105h-75z" />
    <glyph glyph-name="Ycircumflex" unicode="&#x176;" horiz-adv-x="655" 
d="M281 0v327l-279 397h110l123 -177q70 -102 94 -138h2q29 44 94 139l122 176h106l-277 -396v-328h-95zM169 795l113 164h96l113 -164h-75l-86 105l-86 -105h-75z" />
    <glyph glyph-name="ycircumflex" unicode="&#x177;" horiz-adv-x="550" 
d="M192 -220h-98l133 273l-205 439h100l86 -186q36 -79 67 -148h2q44 98 67 148l86 186h95zM115 563l113 164h96l113 -164h-75l-86 105l-86 -105h-75z" />
    <glyph glyph-name="Ydieresis" unicode="&#x178;" horiz-adv-x="655" 
d="M281 0v327l-279 397h110l123 -177q70 -102 94 -138h2q29 44 94 139l122 176h106l-277 -396v-328h-95zM373 877q0 23 16.5 39t38.5 16t38.5 -16t16.5 -39t-16.5 -39t-38.5 -16t-38.5 16t-16.5 39zM177 877q0 23 16.5 39t38.5 16t38.5 -16t16.5 -39t-16.5 -39t-38.5 -16
t-38.5 16t-16.5 39z" />
    <glyph glyph-name="Zacute" unicode="&#x179;" horiz-adv-x="639" 
d="M598 0h-568l-1 2l410 634l-1 2h-383v86h550l1 -2l-410 -634l1 -2h401v-86zM443 959l-110 -164h-68l77 164h101z" />
    <glyph glyph-name="zacute" unicode="&#x17a;" horiz-adv-x="471" 
d="M441 0h-421l-1 2l269 406l-1 2h-248v82h407l1 -2l-269 -406l1 -2h262v-82zM356 727l-110 -164h-68l77 164h101z" />
    <glyph glyph-name="Zdotaccent" unicode="&#x17b;" horiz-adv-x="639" 
d="M598 0h-568l-1 2l410 634l-1 2h-383v86h550l1 -2l-410 -634l1 -2h401v-86zM324 822q-23 0 -39 16t-16 39t16 39t39 16t39 -16t16 -39t-16 -39t-39 -16z" />
    <glyph glyph-name="zdotaccent" unicode="&#x17c;" horiz-adv-x="471" 
d="M441 0h-421l-1 2l269 406l-1 2h-248v82h407l1 -2l-269 -406l1 -2h262v-82zM237 590q-23 0 -39 16t-16 39t16 39t39 16t39 -16t16 -39t-16 -39t-39 -16z" />
    <glyph glyph-name="Zcaron" unicode="&#x17d;" horiz-adv-x="639" 
d="M598 0h-568l-1 2l410 634l-1 2h-383v86h550l1 -2l-410 -634l1 -2h401v-86zM484 959l-113 -164h-96l-113 164h75l86 -105l86 105h75z" />
    <glyph glyph-name="zcaron" unicode="&#x17e;" horiz-adv-x="471" 
d="M441 0h-421l-1 2l269 406l-1 2h-248v82h407l1 -2l-269 -406l1 -2h262v-82zM397 727l-113 -164h-96l-113 164h75l86 -105l86 105h75z" />
    <glyph glyph-name="longs" unicode="&#x17f;" horiz-adv-x="283" 
d="M104 0v411h-78v81h78v94q0 105 44 148q42 41 115 41q40 0 74 -10v-81q-34 9 -70 9q-43 0 -58 -24.5t-15 -69.5v-599h-90z" />
    <glyph glyph-name="florin" unicode="&#x192;" horiz-adv-x="503" 
d="M118 412l13 80h87l20 111q29 163 195 163q29 0 57 -5v-84q-27 7 -60 7q-90 0 -105 -87l-19 -105h128l-13 -80h-129l-85 -485q-28 -158 -181 -158q-25 0 -53 5v85q30 -8 56 -8q77 0 91 82l84 479h-86z" />
    <glyph glyph-name="AEacute" unicode="&#x1fc;" horiz-adv-x="937" 
d="M5 0l420 724h460v-86h-311v-220h271v-83h-271v-249h320v-86h-415v202h-254l-117 -202h-103zM377 464l-104 -179h206v165q0 89 2 193h-2q-43 -79 -102 -179zM751 959l-110 -164h-68l77 164h101z" />
    <glyph glyph-name="aeacute" unicode="&#x1fd;" horiz-adv-x="858" 
d="M808 220h-370q10 -71 58 -110.5t120 -39.5q89 0 168 61v-96q-72 -46 -174 -46q-126 0 -200 83q-84 -83 -194 -83q-71 0 -117 35q-53 40 -53 110q0 77 65 119q51 33 138 33q48 0 99 -12v39q0 54 -28 81q-29 27 -89 27q-82 0 -147 -49v89q68 42 158 42q131 0 173 -80h2
q69 80 175 80q93 0 156 -64t63 -173q0 -28 -3 -46zM589 422q-54 0 -97 -33.5t-53 -97.5h285q-2 52 -38.5 91.5t-96.5 39.5zM258 217q-52 0 -86.5 -18.5t-34.5 -58.5q0 -35 26 -53t67 -18q84 0 144 60q-16 36 -22 75q-44 13 -94 13zM578 727l-110 -164h-68l77 164h101z" />
    <glyph glyph-name="Oslashacute" unicode="&#x1fe;" horiz-adv-x="816" 
d="M135 362q0 -111 66 -190l363 426q-68 49 -156 49q-118 0 -195.5 -82.5t-77.5 -202.5zM40 362q0 158 105.5 265.5t262.5 107.5q123 0 215 -68l62 73l52 -44l-62 -73q101 -107 101 -261q0 -158 -105.5 -265.5t-262.5 -107.5q-123 0 -215 68l-62 -73l-52 44l62 73
q-101 107 -101 261zM681 362q0 111 -66 190l-363 -426q68 -49 156 -49q118 0 195.5 82.5t77.5 202.5zM528 959l-110 -164h-68l77 164h101z" />
    <glyph glyph-name="oslashacute" unicode="&#x1ff;" horiz-adv-x="610" 
d="M135 246q0 -61 33 -107l226 258q-42 24 -89 24q-73 0 -121.5 -50t-48.5 -125zM45 246q0 109 74.5 183t185.5 74q81 0 145 -42l50 57l49 -42l-49 -56q65 -71 65 -174q0 -109 -74.5 -183t-185.5 -74q-81 0 -145 42l-50 -57l-49 42l49 56q-65 71 -65 174zM475 246
q0 61 -33 107l-226 -258q42 -24 89 -24q73 0 121.5 50t48.5 125zM425 727l-110 -164h-68l77 164h101z" />
    <glyph glyph-name="Scommaaccent" unicode="&#x218;" horiz-adv-x="561" 
d="M64 44v104q48 -36 106 -54t110 -18q67 0 107 30.5t40 87.5q0 31 -11 52.5t-38.5 36.5t-46.5 22t-63 19l-21 6q-45 13 -75.5 26t-62 36t-47.5 58.5t-16 82.5q0 95 63.5 148.5t170.5 53.5q123 0 208 -54v-100q-96 67 -210 67q-63 0 -100.5 -27.5t-37.5 -81.5q0 -13 3 -25
t6.5 -21t11.5 -17.5t13.5 -14t18.5 -12l20 -10t23.5 -8.5t23.5 -7t26 -7.5t26 -7.5q37 -10 63 -20t55.5 -27t47.5 -38t30.5 -53t12.5 -72q0 -98 -66 -154t-176 -56q-120 0 -215 55zM262 -54h88l-76 -218h-65z" />
    <glyph glyph-name="scommaaccent" unicode="&#x219;" horiz-adv-x="499" 
d="M66 28v94q83 -52 187 -52q112 0 112 68q0 12 -3.5 21.5t-12.5 16.5t-17.5 11.5t-24.5 8t-26 5.5t-31 5t-32 5q-82 14 -125 44t-43 97q1 74 56.5 112.5t145.5 38.5q102 0 176 -39v-90q-82 48 -180 48q-107 0 -107 -63q0 -12 3.5 -21t12 -15t17 -10.5t23.5 -7.5t26 -5
t30.5 -5t30.5 -5q40 -7 67.5 -15.5t53 -24t38.5 -41.5t13 -63q0 -80 -59.5 -118.5t-147.5 -38.5q-107 0 -183 39zM232 -54h88l-76 -218h-65z" />
    <glyph glyph-name="uni021A" unicode="&#x21a;" horiz-adv-x="621" 
d="M263 0v638h-243v86h581v-86h-243v-638h-95zM292 -54h88l-76 -218h-65z" />
    <glyph glyph-name="uni021B" unicode="&#x21b;" horiz-adv-x="389" 
d="M154 35q-37 42 -37 136v240h-91v81h91v134l90 15v-149h148v-81h-148v-223q0 -55 15 -86t59 -31q41 0 74 21v-85q-36 -18 -89 -18q-72 0 -112 46zM208 -54h88l-76 -218h-65z" />
    <glyph glyph-name="dotlessj" unicode="&#x237;" horiz-adv-x="249" 
d="M80 -55v547h90v-543q0 -94 -34 -133q-40 -47 -121 -47q-32 0 -59 8v81q33 -7 56 -7q40 0 54 23.5t14 70.5z" />
    <glyph glyph-name="circumflex" unicode="&#x2c6;" 
d="M90 563l113 164h96l113 -164h-75l-86 105l-86 -105h-75z" />
    <glyph glyph-name="caron" unicode="&#x2c7;" 
d="M412 727l-113 -164h-96l-113 164h75l86 -105l86 105h75z" />
    <glyph glyph-name="breve" unicode="&#x2d8;" 
d="M251 572q-66 0 -101.5 41t-37.5 107h58q8 -92 81 -92t81 92h58q-2 -66 -37.5 -107t-101.5 -41z" />
    <glyph glyph-name="dotaccent" unicode="&#x2d9;" 
d="M252 590q-23 0 -39 16t-16 39t16 39t39 16t39 -16t16 -39t-16 -39t-39 -16z" />
    <glyph glyph-name="ring" unicode="&#x2da;" 
d="M251 551q-50 0 -83.5 32.5t-33.5 81.5t33.5 81.5t83.5 32.5t83.5 -32.5t33.5 -81.5t-33.5 -81.5t-83.5 -32.5zM251 601q28 0 45.5 18.5t17.5 45.5t-17.5 45.5t-45.5 18.5t-45.5 -18.5t-17.5 -45.5t17.5 -45.5t45.5 -18.5z" />
    <glyph glyph-name="ogonek" unicode="&#x2db;" 
d="M190 -132q0 40 26.5 81.5t72.5 72.5l69 -15q-92 -62 -92 -126q0 -22 13.5 -35.5t37.5 -13.5q20 0 41 6v-60q-29 -9 -57 -9q-50 0 -80.5 28t-30.5 71z" />
    <glyph glyph-name="tilde" unicode="&#x2dc;" 
d="M244 610q-46 23 -67 23q-39 0 -81 -48l-2 1v78q31 43 83 43q33 0 81 -24q46 -23 67 -23q39 0 81 48l2 -1v-78q-31 -43 -83 -43q-33 0 -81 24z" />
    <glyph glyph-name="hungarumlaut" unicode="&#x2dd;" 
d="M263 563l83 164h79l-103 -164h-59zM125 563l83 164h79l-103 -164h-59z" />
    <glyph glyph-name="uni0394" unicode="&#x394;" horiz-adv-x="695" 
d="M28 0v61l272 663h96l272 -663v-61h-640zM133 86h427l-133 329q-41 101 -79 199h-2q-43 -110 -82 -206z" />
    <glyph glyph-name="uni03A9" unicode="&#x3a9;" horiz-adv-x="750" 
d="M375 647q-109 0 -172 -71.5t-63 -184.5q0 -184 164 -327v-64h-282v86h158l1 2q-136 138 -136 315q0 142 92 237t238 95t238 -95t92 -237q0 -177 -136 -315l1 -2h158v-86h-282v64q164 143 164 327q0 113 -63 184.5t-172 71.5z" />
    <glyph glyph-name="uni03BC" unicode="&#x3bc;" horiz-adv-x="594" 
d="M173 -220h-94v712h90v-284q0 -74 24 -102q27 -34 78 -34q43 0 84 24t70 60v336h90v-492h-90v62l-2 1q-74 -74 -167 -74q-53 0 -90 23l-2 -1z" />
    <glyph glyph-name="pi" unicode="&#x3c0;" horiz-adv-x="646" 
d="M123 0q32 177 34 406q-60 -7 -128 -43v80q73 49 189 49h414l-14 -81h-97v-411h-90v411h-184q-2 -227 -33 -411h-91z" />
    <glyph glyph-name="Wgrave" unicode="&#x1e80;" horiz-adv-x="1013" 
d="M237 0l-225 724h101l121 -392q31 -101 57 -189h2q18 62 58 190l123 391h70l123 -392q38 -121 58 -189h2q22 76 57 190l121 391h96l-225 -724h-101l-116 368q-27 86 -51 168h-2q-28 -95 -51 -169l-115 -367h-103zM498 795l-110 164h101l77 -164h-68z" />
    <glyph glyph-name="wgrave" unicode="&#x1e81;" horiz-adv-x="825" 
d="M197 0l-171 492h98l73 -219q22 -67 49 -152h2q23 67 54 152l81 219h64l81 -219q27 -71 54 -152h2q21 70 48 151l73 220h94l-171 -492h-89l-77 211q-22 59 -48 138h-2q-26 -79 -48 -138l-77 -211h-90zM404 563l-110 164h101l77 -164h-68z" />
    <glyph glyph-name="Wacute" unicode="&#x1e82;" horiz-adv-x="1013" 
d="M237 0l-225 724h101l121 -392q31 -101 57 -189h2q18 62 58 190l123 391h70l123 -392q38 -121 58 -189h2q22 76 57 190l121 391h96l-225 -724h-101l-116 368q-27 86 -51 168h-2q-28 -95 -51 -169l-115 -367h-103zM628 959l-110 -164h-68l77 164h101z" />
    <glyph glyph-name="wacute" unicode="&#x1e83;" horiz-adv-x="825" 
d="M197 0l-171 492h98l73 -219q22 -67 49 -152h2q23 67 54 152l81 219h64l81 -219q27 -71 54 -152h2q21 70 48 151l73 220h94l-171 -492h-89l-77 211q-22 59 -48 138h-2q-26 -79 -48 -138l-77 -211h-90zM534 727l-110 -164h-68l77 164h101z" />
    <glyph glyph-name="Wdieresis" unicode="&#x1e84;" horiz-adv-x="1013" 
d="M237 0l-225 724h101l121 -392q31 -101 57 -189h2q18 62 58 190l123 391h70l123 -392q38 -121 58 -189h2q22 76 57 190l121 391h96l-225 -724h-101l-116 368q-27 86 -51 168h-2q-28 -95 -51 -169l-115 -367h-103zM551 877q0 23 16.5 39t38.5 16t38.5 -16t16.5 -39
t-16.5 -39t-38.5 -16t-38.5 16t-16.5 39zM355 877q0 23 16.5 39t38.5 16t38.5 -16t16.5 -39t-16.5 -39t-38.5 -16t-38.5 16t-16.5 39z" />
    <glyph glyph-name="wdieresis" unicode="&#x1e85;" horiz-adv-x="825" 
d="M197 0l-171 492h98l73 -219q22 -67 49 -152h2q23 67 54 152l81 219h64l81 -219q27 -71 54 -152h2q21 70 48 151l73 220h94l-171 -492h-89l-77 211q-22 59 -48 138h-2q-26 -79 -48 -138l-77 -211h-90zM457 645q0 23 16.5 39t38.5 16t38.5 -16t16.5 -39t-16.5 -39
t-38.5 -16t-38.5 16t-16.5 39zM261 645q0 23 16.5 39t38.5 16t38.5 -16t16.5 -39t-16.5 -39t-38.5 -16t-38.5 16t-16.5 39z" />
    <glyph glyph-name="Ygrave" unicode="&#x1ef2;" horiz-adv-x="655" 
d="M281 0v327l-279 397h110l123 -177q70 -102 94 -138h2q29 44 94 139l122 176h106l-277 -396v-328h-95zM320 795l-110 164h101l77 -164h-68z" />
    <glyph glyph-name="ygrave" unicode="&#x1ef3;" horiz-adv-x="550" 
d="M192 -220h-98l133 273l-205 439h100l86 -186q36 -79 67 -148h2q44 98 67 148l86 186h95zM266 563l-110 164h101l77 -164h-68z" />
    <glyph glyph-name="endash" unicode="&#x2013;" horiz-adv-x="496" 
d="M52 241v72h392v-72h-392z" />
    <glyph glyph-name="emdash" unicode="&#x2014;" horiz-adv-x="786" 
d="M36 246v62h714v-62h-714z" />
    <glyph glyph-name="quoteleft" unicode="&#x2018;" horiz-adv-x="268" 
d="M62 473l82 269h61l-55 -269h-88z" />
    <glyph glyph-name="quoteright" unicode="&#x2019;" horiz-adv-x="268" 
d="M63 473l55 269h88l-82 -269h-61z" />
    <glyph glyph-name="quotesinglbase" unicode="&#x201a;" horiz-adv-x="268" 
d="M63 -105l55 269h88l-82 -269h-61z" />
    <glyph glyph-name="quotedblleft" unicode="&#x201c;" horiz-adv-x="430" 
d="M62 473l82 269h61l-55 -269h-88zM224 473l82 269h61l-55 -269h-88z" />
    <glyph glyph-name="quotedblright" unicode="&#x201d;" horiz-adv-x="430" 
d="M63 473l55 269h88l-82 -269h-61zM225 473l55 269h88l-82 -269h-61z" />
    <glyph glyph-name="quotedblbase" unicode="&#x201e;" horiz-adv-x="430" 
d="M63 -105l55 269h88l-82 -269h-61zM225 -105l55 269h88l-82 -269h-61z" />
    <glyph glyph-name="dagger" unicode="&#x2020;" horiz-adv-x="611" 
d="M264 -220v630h-199v80h199v234h83v-234h199v-80h-199v-630h-83z" />
    <glyph glyph-name="daggerdbl" unicode="&#x2021;" horiz-adv-x="611" 
d="M65 14v80h199v316h-199v80h199v234h83v-234h199v-80h-199v-316h199v-80h-199v-234h-83v234h-199z" />
    <glyph glyph-name="bullet" unicode="&#x2022;" horiz-adv-x="384" 
d="M83 297q0 45 32 77t77 32t77 -32t32 -77t-32 -77t-77 -32t-77 32t-32 77z" />
    <glyph glyph-name="ellipsis" unicode="&#x2026;" horiz-adv-x="816" 
d="M82 55q0 27 19.5 46.5t46.5 19.5t46.5 -19.5t19.5 -46.5t-19.5 -46.5t-46.5 -19.5t-46.5 19.5t-19.5 46.5zM343 55q0 27 19.5 46.5t46.5 19.5t46.5 -19.5t19.5 -46.5t-19.5 -46.5t-46.5 -19.5t-46.5 19.5t-19.5 46.5zM604 55q0 27 19.5 46.5t46.5 19.5t46.5 -19.5
t19.5 -46.5t-19.5 -46.5t-46.5 -19.5t-46.5 19.5t-19.5 46.5z" />
    <glyph glyph-name="perthousand" unicode="&#x2030;" horiz-adv-x="1348" 
d="M228 361q-76 0 -125 53.5t-49 133.5t49 133.5t125 53.5t125 -53.5t49 -133.5t-49 -133.5t-125 -53.5zM196 0l471 724h69l-471 -724h-69zM228 423q47 0 78 36t31 89t-31 89t-78 36t-78 -36t-31 -89t31 -89t78 -36zM946 176q0 80 49 133.5t125 53.5t125 -53.5t49 -133.5
t-49 -133.5t-125 -53.5t-125 53.5t-49 133.5zM530 176q0 80 49 133.5t125 53.5t125 -53.5t49 -133.5t-49 -133.5t-125 -53.5t-125 53.5t-49 133.5zM1011 176q0 -53 31 -89t78 -36t78 36t31 89t-31 89t-78 36t-78 -36t-31 -89zM595 176q0 -53 31 -89t78 -36t78 36t31 89
t-31 89t-78 36t-78 -36t-31 -89z" />
    <glyph glyph-name="guilsinglleft" unicode="&#x2039;" horiz-adv-x="344" 
d="M212 27l-166 219l166 219h78l-166 -219l166 -219h-78z" />
    <glyph glyph-name="guilsinglright" unicode="&#x203a;" horiz-adv-x="344" 
d="M54 27l166 219l-166 219h78l166 -219l-166 -219h-78z" />
    <glyph glyph-name="fraction" unicode="&#x2044;" horiz-adv-x="359" 
d="M-18 -13h-82l477 737h82z" />
    <glyph glyph-name="four.superior" unicode="&#x2074;" horiz-adv-x="411" 
d="M238 422v100h-228l-1 2l234 332h69v-274h75v-60h-75v-100h-74zM180 669l-60 -85l1 -2h117v72q0 46 2 100l-2 1q-27 -41 -58 -86z" />
    <glyph glyph-name="Euro" unicode="&#x20ac;" horiz-adv-x="599" 
d="M17 246v73h75q-2 26 -2 45q0 25 2 47h-75v73h88q31 116 121 183.5t224 67.5q52 0 108 -14v-94q-57 20 -113 20q-87 0 -149.5 -43.5t-90.5 -119.5h203v-73h-220q-3 -23 -3 -47q0 -17 2 -45h221v-73h-204q27 -79 90 -124t150 -45q71 0 126 23v-93q-64 -18 -130 -18
q-130 0 -217.5 70t-118.5 187h-87z" />
    <glyph glyph-name="litre" unicode="&#x2113;" horiz-adv-x="425" 
d="M57 144l-33 57q56 52 80 77v258q0 102 40.5 158t102.5 56q53 0 84.5 -41.5t31.5 -113.5q0 -157 -159 -328v-66q0 -75 14.5 -105.5t46.5 -30.5q40 0 88 55l37 -48q-60 -86 -148 -86q-69 0 -103 46t-34 123v35q-43 -43 -48 -46zM204 363q85 115 85 232q0 81 -38 81
q-47 0 -47 -132v-181z" />
    <glyph glyph-name="trademark" unicode="&#x2122;" horiz-adv-x="630" 
d="M112 434v242h-88v48h228v-48h-88v-242h-52zM440 508l-46 64q-32 46 -46 67l-2 -1q2 -42 2 -74v-130h-51v290h49l94 -130l94 130h50v-290h-52v130q0 32 2 74l-2 1q-14 -21 -46 -67z" />
    <glyph glyph-name="Omega" unicode="&#x2126;" horiz-adv-x="750" 
d="M375 647q-109 0 -172 -71.5t-63 -184.5q0 -184 164 -327v-64h-282v86h158l1 2q-136 138 -136 315q0 142 92 237t238 95t238 -95t92 -237q0 -177 -136 -315l1 -2h158v-86h-282v64q164 143 164 327q0 113 -63 184.5t-172 71.5z" />
    <glyph glyph-name="estimated" unicode="&#x212e;" horiz-adv-x="752" 
d="M174 137q0 -41 35.5 -71t81 -42.5t91.5 -12.5q67 0 131.5 30.5t106.5 87.5l33 -7q-102 -139 -274 -139q-146 0 -241.5 93t-95.5 229t95.5 229.5t240.5 93.5q85 0 157.5 -32.5t122 -101.5t53.5 -162q1 -23 -4 -27.5t-28 -4.5h-473q-25 0 -28.5 -4t-3.5 -28v-131zM206 328
h342q25 0 28.5 4t3.5 28v125q0 48 -59.5 81.5t-143.5 33.5t-143.5 -33.5t-59.5 -81.5v-125q0 -24 3.5 -28t28.5 -4z" />
    <glyph glyph-name="partialdiff" unicode="&#x2202;" horiz-adv-x="565" 
d="M33 212q0 101 63.5 172.5t169.5 71.5q88 0 164 -58l2 1q-1 34 -4.5 65t-11 66.5t-20.5 64t-31.5 52t-46.5 37t-63 13.5q-68 0 -131 -37v83q72 36 149 36q89 0 147 -57.5t80.5 -142.5t22.5 -195q0 -87 -15.5 -157t-46.5 -124.5t-82.5 -84t-120.5 -29.5q-104 0 -164.5 62.5
t-60.5 160.5zM123 214q0 -64 37.5 -103.5t100.5 -39.5q79 0 120 63.5t49 173.5q-66 68 -155 68q-72 0 -112 -48.5t-40 -113.5z" />
    <glyph glyph-name="Delta" unicode="&#x2206;" horiz-adv-x="695" 
d="M28 0v61l272 663h96l272 -663v-61h-640zM133 86h427l-133 329q-41 101 -79 199h-2q-43 -110 -82 -206z" />
    <glyph glyph-name="product" unicode="&#x220f;" horiz-adv-x="782" 
d="M150 -116v754h-118v86h718v-86h-118v-754h-95v754h-292v-754h-95z" />
    <glyph glyph-name="summation" unicode="&#x2211;" horiz-adv-x="614" 
d="M51 -53l229 380l-221 334v63h484v-86h-364l204 -308l-217 -360h393v-86h-508v63z" />
    <glyph glyph-name="minus" unicode="&#x2212;" horiz-adv-x="588" 
d="M53 326v72h482v-72h-482z" />
    <glyph glyph-name="radical" unicode="&#x221a;" horiz-adv-x="670" 
d="M346 41h2q28 88 64 190l224 647h77l-346 -994h-37l-209 523l-100 -41l-25 62l170 71l107 -270q4 -11 31.5 -80.5t41.5 -107.5z" />
    <glyph glyph-name="infinity" unicode="&#x221e;" horiz-adv-x="757" 
d="M207 136q46 0 75.5 30t57.5 84q-25 56 -55.5 87t-77.5 31t-74 -32.5t-27 -83.5t27 -83.5t74 -32.5zM34 252q0 78 46.5 132.5t125.5 54.5q104 0 173 -121h2q66 121 169 121q76 0 123.5 -54t47.5 -133q0 -78 -46.5 -132.5t-125.5 -54.5q-104 0 -173 121h-2
q-66 -121 -169 -121q-76 0 -123.5 54t-47.5 133zM548 368q-46 0 -75.5 -30t-57.5 -84q25 -56 55.5 -87t77.5 -31t74 32.5t27 83.5t-27 83.5t-74 32.5z" />
    <glyph glyph-name="integral" unicode="&#x222b;" horiz-adv-x="347" 
d="M42 -96q32 -5 55 -5q90 0 90 88q0 32 -11 89l-93 467q-13 63 -13 117q0 85 48 125.5t127 40.5q30 0 58 -5v-82q-30 5 -54 5q-90 0 -90 -88q0 -32 11 -89l93 -467q13 -63 13 -117q0 -85 -48 -125.5t-127 -40.5q-29 0 -59 5v82z" />
    <glyph glyph-name="approxequal" unicode="&#x2248;" horiz-adv-x="588" 
d="M89 391l-21 57q39 72 114 72q42 0 116 -27.5t108 -27.5q57 0 93 58l21 -57q-39 -72 -114 -72q-42 0 -116 27.5t-108 27.5q-57 0 -93 -58zM89 201l-21 57q39 72 114 72q42 0 116 -27.5t108 -27.5q57 0 93 58l21 -57q-39 -72 -114 -72q-42 0 -116 27.5t-108 27.5
q-57 0 -93 -58z" />
    <glyph glyph-name="notequal" unicode="&#x2260;" horiz-adv-x="588" 
d="M53 428v72h315l113 142l42 -35l-85 -107h97v-72h-154l-105 -132h259v-72h-316l-112 -142l-43 35l85 107h-96v72h153l105 132h-258z" />
    <glyph glyph-name="lessequal" unicode="&#x2264;" horiz-adv-x="687" 
d="M90 375v52l507 216v-77l-387 -164v-2l387 -164v-78zM90 0v65h507v-65h-507z" />
    <glyph glyph-name="greaterequal" unicode="&#x2265;" horiz-adv-x="687" 
d="M90 158v78l387 164v2l-387 164v77l507 -216v-52zM90 0v65h507v-65h-507z" />
    <glyph glyph-name="lozenge" unicode="&#x25ca;" horiz-adv-x="540" 
d="M242 -19l-185 379l185 378h56l185 -379l-185 -378h-56zM269 73h2l139 286l-139 287h-2l-139 -286z" />
    <glyph glyph-name="commaaccent" unicode="&#xf6c3;" 
d="M233 -54h88l-76 -218h-65z" />
    <glyph glyph-name="apple" unicode="&#xf8ff;" horiz-adv-x="1006" 
d="M484 674q-2 12 -2 27q0 63 51 120t120 66l15 1q2 -14 2 -25q0 -74 -56 -132q-56 -57 -130 -57zM209 96q-48 64 -77 148t-29 169q0 124 67 197q68 74 177 74q39 0 94 -21q42 -16 56 -16q12 0 79 23q42 14 88 14q116 0 187 -87q-101 -74 -101 -176q0 -118 125 -183
q-35 -99 -98 -171t-116 -72q-21 0 -82 22q-46 17 -77 17q-30 0 -65 -13q-68 -26 -87 -26q-66 0 -141 101z" />
    <glyph glyph-name="ff" unicode="&#xfb00;" horiz-adv-x="659" 
d="M419 0v411h-225v-411h-90v411h-78v81h78v94q0 105 44 148q42 41 115 41q40 0 74 -10v-81q-34 9 -70 9q-43 0 -58 -24.5t-15 -69.5v-107h225v94q0 105 44 148q42 41 115 41q40 0 74 -10v-81q-34 9 -70 9q-43 0 -58 -24.5t-15 -69.5v-107h126v-81h-126v-411h-90z" />
    <glyph glyph-name="commaaccent.alt" 
d="M180 556l76 218h65l-53 -218h-88z" />
    <glyph glyph-name="hyphen.cap" horiz-adv-x="352" 
d="M57 321v80h238v-80h-238z" />
    <glyph glyph-name="exclamdown.cap" horiz-adv-x="306" 
d="M182 502l24 -502h-104l24 502h56zM217 672q0 -26 -18.5 -44.5t-44.5 -18.5t-44.5 18.5t-18.5 44.5t18.5 44.5t44.5 18.5t44.5 -18.5t18.5 -44.5z" />
    <glyph glyph-name="questiondown.cap" horiz-adv-x="467" 
d="M337 534l21 -180q-101 0 -161 -35.5t-60 -105.5q0 -59 40 -97t99 -38q73 0 133 44l10 -92q-62 -40 -146 -40q-99 0 -165 63t-66 154q0 87 61.5 147.5t153.5 71.5l-4 108h84zM346 673q0 -26 -18.5 -44.5t-44.5 -18.5t-44.5 18.5t-18.5 44.5t18.5 44.5t44.5 18.5
t44.5 -18.5t18.5 -44.5z" />
    <glyph glyph-name="guilsinglleft.cap" horiz-adv-x="344" 
d="M212 143l-166 219l166 219h78l-166 -219l166 -219h-78z" />
    <glyph glyph-name="guilsinglright.cap" horiz-adv-x="344" 
d="M54 143l166 219l-166 219h78l166 -219l-166 -219h-78z" />
    <glyph glyph-name="guillemotleft.cap" horiz-adv-x="548" 
d="M212 143l-166 219l166 219h78l-166 -219l166 -219h-78zM416 143l-166 219l166 219h78l-166 -219l166 -219h-78z" />
    <glyph glyph-name="guillemotright.cap" horiz-adv-x="548" 
d="M54 143l166 219l-166 219h78l166 -219l-166 -219h-78zM258 143l166 219l-166 219h78l166 -219l-166 -219h-78z" />
    <glyph glyph-name="endash.cap" horiz-adv-x="496" 
d="M52 325v72h392v-72h-392z" />
    <glyph glyph-name="emdash.cap" horiz-adv-x="786" 
d="M36 330v62h714v-62h-714z" />
    <glyph glyph-name="parenleft.cap" horiz-adv-x="350" 
d="M73 362q0 151 40 272.5t104 205.5h89q-67 -88 -108.5 -211t-41.5 -267t41.5 -267t108.5 -211h-89q-64 84 -104 205.5t-40 272.5z" />
    <glyph glyph-name="parenright.cap" horiz-adv-x="350" 
d="M44 -116q67 88 108.5 211t41.5 267t-41.5 267t-108.5 211h89q64 -84 104 -205.5t40 -272.5t-40 -272.5t-104 -205.5h-89z" />
    <glyph glyph-name="bracketleft.cap" horiz-adv-x="360" 
d="M179 -44h134v-72h-217v956h217v-72h-134v-812z" />
    <glyph glyph-name="bracketright.cap" horiz-adv-x="360" 
d="M47 -44h134v812h-134v72h217v-956h-217v72z" />
    <glyph glyph-name="braceleft.cap" horiz-adv-x="382" 
d="M137 31v211q0 47 -14.5 65.5t-64.5 18.5h-25v72h25q50 0 64.5 18.5t14.5 65.5v211q0 158 147 158q37 0 60 -5v-71q-17 4 -48 4q-43 0 -59.5 -21.5t-16.5 -74.5v-196q0 -53 -13.5 -83t-48.5 -41v-2q35 -11 48.5 -41t13.5 -83v-196q0 -53 16.5 -74.5t59.5 -21.5q31 0 48 4
v-71q-23 -5 -60 -5q-147 0 -147 158z" />
    <glyph glyph-name="braceright.cap" horiz-adv-x="382" 
d="M162 41v196q0 53 13.5 83t48.5 41v2q-35 11 -48.5 41t-13.5 83v196q0 53 -16.5 74.5t-59.5 21.5q-31 0 -48 -4v71q23 5 60 5q147 0 147 -158v-211q0 -47 14.5 -65.5t64.5 -18.5h25v-72h-25q-50 0 -64.5 -18.5t-14.5 -65.5v-211q0 -158 -147 -158q-37 0 -60 5v71
q17 -4 48 -4q43 0 59.5 21.5t16.5 74.5z" />
    <glyph glyph-name="i.TRK" horiz-adv-x="248" 
d="M79 0v492h90v-492h-90z" />
    <glyph glyph-name="tilde.cap" 
d="M244 842q-46 23 -67 23q-39 0 -81 -48l-2 1v78q31 43 83 43q33 0 81 -24q46 -23 67 -23q39 0 81 48l2 -1v-78q-31 -43 -83 -43q-33 0 -81 24z" />
    <glyph glyph-name="dieresis.cap" 
d="M294 877q0 23 16 39t39 16t39 -16t16 -39t-16 -39t-39 -16t-39 16t-16 39zM98 877q0 23 16 39t39 16t39 -16t16 -39t-16 -39t-39 -16t-39 16t-16 39z" />
    <glyph glyph-name="macron.cap" 
d="M114 843v68h274v-68h-274z" />
    <glyph glyph-name="breve.cap" 
d="M251 804q-66 0 -101.5 41t-37.5 107h58q8 -92 81 -92t81 92h58q-2 -66 -37.5 -107t-101.5 -41z" />
    <glyph glyph-name="ring.cap" 
d="M251 783q-50 0 -83.5 32.5t-33.5 81.5t33.5 81.5t83.5 32.5t83.5 -32.5t33.5 -81.5t-33.5 -81.5t-83.5 -32.5zM251 833q28 0 45.5 18.5t17.5 45.5t-17.5 45.5t-45.5 18.5t-45.5 -18.5t-17.5 -45.5t17.5 -45.5t45.5 -18.5z" />
    <glyph glyph-name="hungarumlaut.cap" 
d="M263 795l83 164h79l-103 -164h-59zM125 795l83 164h79l-103 -164h-59z" />
    <glyph glyph-name="dotaccent.cap" 
d="M252 822q-23 0 -39 16t-16 39t16 39t39 16t39 -16t16 -39t-16 -39t-39 -16z" />
    <glyph glyph-name="grave.cap" 
d="M241 795l-110 164h101l77 -164h-68z" />
    <glyph glyph-name="acute.cap" 
d="M371 959l-110 -164h-68l77 164h101z" />
    <glyph glyph-name="circumflex.cap" 
d="M90 795l113 164h96l113 -164h-75l-86 105l-86 -105h-75z" />
    <glyph glyph-name="caron.cap" 
d="M412 959l-113 -164h-96l-113 164h75l86 -105l86 105h75z" />
    <glyph glyph-name="a.alt" horiz-adv-x="597" 
d="M47 240q0 115 73.5 189t186.5 74q64 0 124 -27l87 15v-491h-89v31l-2 1q-61 -43 -139 -43q-102 0 -171.5 69.5t-69.5 181.5zM138 245q0 -76 44.5 -126t118.5 -50q70 0 127 42v279q-62 33 -123 33q-75 0 -121 -50t-46 -128z" />
    <glyph glyph-name="agrave.alt" horiz-adv-x="597" 
d="M47 240q0 115 73.5 189t186.5 74q64 0 124 -27l87 15v-491h-89v31l-2 1q-61 -43 -139 -43q-102 0 -171.5 69.5t-69.5 181.5zM138 245q0 -76 44.5 -126t118.5 -50q70 0 127 42v279q-62 33 -123 33q-75 0 -121 -50t-46 -128zM290 563l-110 164h101l77 -164h-68z" />
    <glyph glyph-name="aacute.alt" horiz-adv-x="597" 
d="M420 727l-110 -164h-68l77 164h101zM47 240q0 115 73.5 189t186.5 74q64 0 124 -27l87 15v-491h-89v31l-2 1q-61 -43 -139 -43q-102 0 -171.5 69.5t-69.5 181.5zM138 245q0 -76 44.5 -126t118.5 -50q70 0 127 42v279q-62 33 -123 33q-75 0 -121 -50t-46 -128z" />
    <glyph glyph-name="acircumflex.alt" horiz-adv-x="597" 
d="M47 240q0 115 73.5 189t186.5 74q64 0 124 -27l87 15v-491h-89v31l-2 1q-61 -43 -139 -43q-102 0 -171.5 69.5t-69.5 181.5zM138 245q0 -76 44.5 -126t118.5 -50q70 0 127 42v279q-62 33 -123 33q-75 0 -121 -50t-46 -128zM139 563l113 164h96l113 -164h-75l-86 105
l-86 -105h-75z" />
    <glyph glyph-name="atilde.alt" horiz-adv-x="597" 
d="M47 240q0 115 73.5 189t186.5 74q64 0 124 -27l87 15v-491h-89v31l-2 1q-61 -43 -139 -43q-102 0 -171.5 69.5t-69.5 181.5zM138 245q0 -76 44.5 -126t118.5 -50q70 0 127 42v279q-62 33 -123 33q-75 0 -121 -50t-46 -128zM296 610q-46 23 -67 23q-39 0 -81 -48l-2 1v78
q31 43 83 43q33 0 81 -24q46 -23 67 -23q39 0 81 48l2 -1v-78q-31 -43 -83 -43q-33 0 -81 24z" />
    <glyph glyph-name="adieresis.alt" horiz-adv-x="597" 
d="M343 645q0 23 16.5 39t38.5 16t38.5 -16t16.5 -39t-16.5 -39t-38.5 -16t-38.5 16t-16.5 39zM147 645q0 23 16.5 39t38.5 16t38.5 -16t16.5 -39t-16.5 -39t-38.5 -16t-38.5 16t-16.5 39zM47 240q0 115 73.5 189t186.5 74q64 0 124 -27l87 15v-491h-89v31l-2 1
q-61 -43 -139 -43q-102 0 -171.5 69.5t-69.5 181.5zM138 245q0 -76 44.5 -126t118.5 -50q70 0 127 42v279q-62 33 -123 33q-75 0 -121 -50t-46 -128z" />
    <glyph glyph-name="amacron.alt" horiz-adv-x="597" 
d="M47 240q0 115 73.5 189t186.5 74q64 0 124 -27l87 15v-491h-89v31l-2 1q-61 -43 -139 -43q-102 0 -171.5 69.5t-69.5 181.5zM138 245q0 -76 44.5 -126t118.5 -50q70 0 127 42v279q-62 33 -123 33q-75 0 -121 -50t-46 -128zM163 611v68h274v-68h-274z" />
    <glyph glyph-name="abreve.alt" horiz-adv-x="597" 
d="M47 240q0 115 73.5 189t186.5 74q64 0 124 -27l87 15v-491h-89v31l-2 1q-61 -43 -139 -43q-102 0 -171.5 69.5t-69.5 181.5zM138 245q0 -76 44.5 -126t118.5 -50q70 0 127 42v279q-62 33 -123 33q-75 0 -121 -50t-46 -128zM300 572q-66 0 -101.5 41t-37.5 107h58
q8 -92 81 -92t81 92h58q-2 -66 -37.5 -107t-101.5 -41z" />
    <glyph glyph-name="aring.alt" horiz-adv-x="597" 
d="M47 240q0 115 73.5 189t186.5 74q64 0 124 -27l87 15v-491h-89v31l-2 1q-61 -43 -139 -43q-102 0 -171.5 69.5t-69.5 181.5zM138 245q0 -76 44.5 -126t118.5 -50q70 0 127 42v279q-62 33 -123 33q-75 0 -121 -50t-46 -128zM300 551q-50 0 -83.5 32.5t-33.5 81.5
t33.5 81.5t83.5 32.5t83.5 -32.5t33.5 -81.5t-33.5 -81.5t-83.5 -32.5zM300 601q28 0 45.5 18.5t17.5 45.5t-17.5 45.5t-45.5 18.5t-45.5 -18.5t-17.5 -45.5t17.5 -45.5t45.5 -18.5z" />
    <glyph glyph-name="ae.alt" horiz-adv-x="935" 
d="M885 220h-370q10 -71 58 -110.5t120 -39.5q89 0 168 61v-96q-72 -46 -174 -46q-126 0 -202 85q-80 -85 -195 -85q-105 0 -174 69t-69 181q0 115 73 189.5t186 74.5q59 0 119 -25l88 15v-56l2 -1q55 67 155 67q93 0 155.5 -64t62.5 -173q0 -28 -3 -46zM298 69q90 0 150 63
q-24 51 -24 115v143q-60 33 -121 33q-74 0 -119.5 -50t-45.5 -127q0 -76 44 -126.5t116 -50.5zM666 422q-54 0 -97 -33.5t-53 -97.5h285q-2 52 -38.5 91.5t-96.5 39.5z" />
    <glyph glyph-name="aeacute.alt" horiz-adv-x="935" 
d="M614 727l-110 -164h-68l77 164h101zM885 220h-370q10 -71 58 -110.5t120 -39.5q89 0 168 61v-96q-72 -46 -174 -46q-126 0 -202 85q-80 -85 -195 -85q-105 0 -174 69t-69 181q0 115 73 189.5t186 74.5q59 0 119 -25l88 15v-56l2 -1q55 67 155 67q93 0 155.5 -64
t62.5 -173q0 -28 -3 -46zM298 69q90 0 150 63q-24 51 -24 115v143q-60 33 -121 33q-74 0 -119.5 -50t-45.5 -127q0 -76 44 -126.5t116 -50.5zM666 422q-54 0 -97 -33.5t-53 -97.5h285q-2 52 -38.5 91.5t-96.5 39.5z" />
    <glyph glyph-name="aogonek.alt" horiz-adv-x="597" 
d="M47 240q0 115 73.5 189t186.5 74q64 0 124 -27l87 15v-491q-83 -56 -83 -117q0 -51 51 -51q16 0 39 5v-60q-24 -8 -54 -8q-51 0 -81.5 27.5t-30.5 72.5q0 73 70 131v31l-2 1q-61 -43 -139 -43q-102 0 -171.5 69.5t-69.5 181.5zM138 245q0 -76 44.5 -126t118.5 -50
q70 0 127 42v279q-62 33 -123 33q-75 0 -121 -50t-46 -128z" />
    <glyph glyph-name="ordfeminine.alt" horiz-adv-x="388" 
d="M34 564q0 75 48 123t122 48q44 0 81 -18l61 11v-320h-67v17l-2 2q-42 -26 -87 -26q-66 0 -111 45t-45 118zM102 568q0 -46 27.5 -77.5t72.5 -31.5q41 0 76 25v172q-35 20 -74 20q-46 0 -74 -30.5t-28 -77.5z" />
    <glyph glyph-name="periodcentered.cap" horiz-adv-x="294" 
d="M81 362q0 27 19.5 46.5t46.5 19.5t46.5 -19.5t19.5 -46.5t-19.5 -46.5t-46.5 -19.5t-46.5 19.5t-19.5 46.5z" />
    <glyph glyph-name="at.cap" horiz-adv-x="807" 
d="M34 362q0 158 105.5 265.5t264.5 107.5q158 0 263.5 -107t105.5 -260q0 -89 -39 -143.5t-113 -54.5q-81 0 -114 61h-2q-53 -62 -133 -62q-69 0 -113 47.5t-44 123.5q0 86 55 150.5t142 64.5q55 0 103 -35l56 10l-17 -195q-1 -10 -1 -18q0 -47 19.5 -72t55.5 -25
q43 0 69 36t26 107q0 135 -88.5 229.5t-229.5 94.5t-231 -95t-90 -230q0 -136 89.5 -230.5t229.5 -94.5q124 0 212 75l27 -41q-99 -82 -238 -82q-160 0 -265 107t-105 266zM382 227q66 0 107 56q-2 20 1 56l10 119q-39 39 -92 39q-56 0 -91.5 -47t-35.5 -108q0 -51 27 -83
t74 -32z" />
    </font>
</defs>
</svg>
